Welcome Guest ( Log In | Register )

> И неформату есть предел.

Рэп/хип-хоп/шансон/поп удаляются. Для них есть свои порталы.

 
Reply to this topicStart new topic
> Deadboy & The Elephantmen - We Are Night Sky (2006), Stoner Rock
post Oct 12 2017, 20:00:16
Post #1

Пять Литров
*****
Group: Металариец
Posts: 425
Releases: 23
On Forums: 4 years 8 months
Thanks: 793 time(s)
Unknown


(IMG:http://metalarea.org/images/audiocovers/2017_Oct/acov_tid296094_thumb.jpg)

*Artist: Deadboy & The Elephantmen
*Album: We Are Night Sky
*Year: 2006
*Genre: Stoner Rock
*Country: United States (IMG:http://metalarea.org/forum/style_images/flags/United%20States.png)
*Format: mp3@CBR320kbps
*Size: 89MB

Tracklist:
01. Stop, I'm Already Dead 2:19
02. No Rainbow 4:35
03. How Long The Night Was 3:14
04. Ancient Man 3:17
05. Dressed In Smoke 3:57
06. Blood Music 3:36
07. Walking Stick 3:25
08. Kissed By Lightning 2:04
09. Misadventures Of Dope 2:30
10. Break It Off 3:47
11. Evil Friend 3:09
12. What The Stars Have Eaten 2:52
******************************
Total playing time: 38:45

Extended info
Side project of Dax Riggs, the singer and lyricist of Acid Bath


Technical info
(IMG:http://metalarea.org/images/spectrogram/2017_Oct/2b19812ed9a413c130809cbcd9b65fa8.png)
Input File: 06 Blood Music.mp3
Channels : 2
Sample Rate : 44100
Precision : 16-bit
Duration : 00:03:37.00 = 9569612 samples = 16274.9 CDDA sectors
File Size : 8.74M
Bit Rate : 322k
Sample Encoding: MPEG audio (layer I, II or III)
Comments :
Title=Blood Music
Artist=Deadboy & The Elephantmen
Album=We Are Night Sky
Tracknumber=6
Year=2006
Genre=17



Register


Go to the top of the page
  Insert nick Quick quote
+Quote Post

Reply to this topicStart new topic
1 User(s) are reading this topic (1 Guests and 0 Anonymous Users)
0 Members:

 



- Lo-Fi Version Support form
Copyrights and abuse reports form
Time is now: 19th June 2018 - 03:37:43