Welcome Guest ( Log In | Register )

> И неформату есть предел.

Рэп/хип-хоп/шансон/поп удаляются. Для них есть свои порталы.

 
Reply to this topicStart new topic
> Dax Riggs - Say Goodnight To The World (2010), Stoner Rock
post Oct 12 2017, 20:20:36
Post #1

Семь Литров
*******
Group: Металариец
Posts: 709
Releases: 40
On Forums: 4 years 11 months
Thanks: 1198 time(s)
Unknown


(IMG:http://metalarea.org/images/audiocovers/2017_Oct/acov_tid296096_thumb.jpg)

*Artist: Dax Riggs
*Album: Say Goodnight To The World
*Year: 2010
*Genre: Stoner Rock
*Country: United States (IMG:http://metalarea.org/forum/style_images/flags/United%20States.png)
*Format: mp3@CBR320kbps
*Size: 81MB

Tracklist:
01. Say Goodnight To The World 4:19
02. I Hear Satan 2:59
03. You Were Born To Be My Gallows 2:53
04. Gravedirt On My Blue Suede Shoes 2:21
05. Like Moonlight 4:09
06. No One Will Be A Stranger 2:58
07. Heartbreak Hotel (Elvis Presley cover) 4:17
08. Sleeping With The Witch 2:57
09. Let Me Be Your Cigarette 2:48
10. See You All In Hell Or New Orleans 4:46
******************************
Total playing time: 34:27

Extended info
Dax Riggs was the singer and lyricist of Acid Bath


Technical info
(IMG:http://metalarea.org/images/spectrogram/2017_Oct/47f17c580f0a0f97777c2661923ecc16.png)
Input File: 01 - Say Goodnight To The World.mp3
Channels : 2
Sample Rate : 44100
Precision : 16-bit
Duration : 00:04:19.29 = 11434689 samples = 19446.8 CDDA sectors
File Size : 10.4M
Bit Rate : 320k
Sample Encoding: MPEG audio (layer I, II or III)
Comments :
Title=Say Goodnight To The World
Artist=Dax Riggs
Album=Say Goodnight To The World
Tracknumber=1
Year=2010
Genre=Rock



Register


Thanks:
Go to the top of the page
  Insert nick Quick quote
+Quote Post

Reply to this topicStart new topic
1 User(s) are reading this topic (1 Guests and 0 Anonymous Users)
0 Members:

 



- Lo-Fi Version Support form
Copyrights and abuse reports form
Time is now: 18th September 2018 - 20:14:20