Welcome Guest ( Log In | Register )

> Cavemaster - Sob O Abismo Do Infinito (2017), Black Metal
post Oct 12 2017, 20:55:06
Post #1

Правь статус, ####!111
**************
Group: Металариец
Posts: 3,298
Releases: 643
From: Brazil
On Forums: 6 years 7 months
Thanks: 25593 time(s)
Brazil


(IMG:https://metalarea.org/images/audiocovers/2017_Oct/acov_tid296097_thumb.jpg)

*Artist: Cavemaster
*Album: Sob O Abismo Do Infinito
*Year: 2017
*Genre: Black Metal
*Country: Portugal (IMG:https://metalarea.org/forum/style_images/flags/Portugal.png)
*Format: mp3@CBR320kbps
*Size: 101MB

Tracklist:
1. A Morte que me leva para o Abismo 05:10
2. Chamas do Inferno 05:04
3. Fim da Humanidade 03:59
4. Céu em Chamas 04:48
5. Sede de Sangue 02:08
6. Sob o Abismo do Infinito 01:55
7. Terra Queimada 04:46
8. Ardendo nas Chamas do Inferno 04:52
9. Aniquilação 04:15
10. Destruição da Humanidade 05:08
******************************
Total playing time: 42:05



Extended info
Exclusive for Metalarea.org - My Own Purchase

Born in 2016, Cavemaster is hailing from Portugal to deliver black metal with and old-school edge. Our lyrics are written in Portuguese and express our visions about anti-humanism, nihilism and hate against religion.


Lineup

Rater Drums (2016-present)
See also: Legacy of Cynthia, Logon, Doomcast

DS13 Guitars, Bass, Keyboards (2016-present)
See also: Karbonsoul, ex-Unsilent, Projekt NÖIR, ex-VS777, ex-Entropia, ex-Extortion

Revage Vocals (2016-present)
See also: Bruma Obscura, Murmúrios do Vento, Obscvrii Lvnae, Ódio Profundo, Revage, ex-Skyeyes, ex-Vómito na Cruz


Technical info
(IMG:https://metalarea.org/images/spectrogram/2017_Oct/e03d18fd5957b34f74edbac150d8c6ab.png)
Input File: Cavemaster - Sob o Abismo do Infinito - 03 Fim da Humanidade.mp3
Channels : 2
Sample Rate : 44100
Precision : 16-bit
Duration : 00:03:59.12 = 10545236 samples = 17934.1 CDDA sectors
File Size : 9.75M
Bit Rate : 326k
Sample Encoding: MPEG audio (layer I, II or III)
Comments :
Title=Fim da Humanidade
Artist=Cavemaster
Album=Sob o Abismo do Infinito
Tracknumber=3
Year=2017



Register


Go to the top of the page
  Insert nick Quick quote
+Quote Post
 
Start new topic
Replies (1 - 1)
post Oct 12 2017, 21:52:23
Post #2

Правь статус, ####!111
**************
Group: Металариец
Posts: 3,298
Releases: 643
From: Brazil
On Forums: 6 years 7 months
Thanks: 25593 time(s)
Brazil


Register


Go to the top of the page
  Insert nick Quick quote
+Quote Post

Reply to this topicStart new topic
1 User(s) are reading this topic (1 Guests and 0 Anonymous Users)
0 Members:

 



- Lo-Fi Version Support form
Copyrights and abuse reports form
Time is now: 25th September 2018 - 01:20:23