Welcome Guest ( Log In | Register )

> Dissector - Loss (2017), Melodic Death/Thrash Metal (D15)
post Oct 12 2017, 22:06:15
Post #1

Правь статус, ####!111
**************
Group: Металариец
Posts: 14,277
Releases: 9902
From: Г.Харьков
On Forums: 6 years 4 months
Thanks: 162447 time(s)
Unknown


(IMG:https://metalarea.org/images/audiocovers/2017_Oct/acov_tid296098_thumb.jpg)

*Artist: Dissector
*Album: Loss
*Year: 2017
*Genre: Melodic Death/Thrash Metal
*Country: Russian Federation (IMG:https://metalarea.org/forum/style_images/flags/Russian%20Federation.png)
*Format: mp3@CBR320kbps
*Size: 108MB

Tracklist:
01. We Are the Voice
02. The Architect
03. The End
04. Pieces of Heart
05. Spark
06. Locked Inside
07. Pay
08. Far from Mind
09. Metal on Loud
10. Na Razryv
******************************
Total playing time: 51:07




Technical info
(IMG:https://metalarea.org/images/spectrogram/2017_Oct/d951c0fe99354005ff07e332056f923a.png)
Input File: 3 The End.mp3
Channels : 2
Sample Rate : 44100
Precision : 16-bit
Duration : 00:05:30.51 = 14575447 samples = 24788.2 CDDA sectors
File Size : 13.3M
Bit Rate : 322k
Sample Encoding: MPEG audio (layer I, II or III)
Comments :
Title=The End
Artist=Dissector
Album=Loss
Tracknumber=3/10
Year=2017
Genre=9
Discnumber=1/1



Register


Go to the top of the page
  Insert nick Quick quote
+Quote Post
 
Start new topic
Replies (1 - 2)
post Oct 19 2017, 14:00:06
Post #2

Ъ
**************
Group: Металариец
Posts: 9,151
Releases: 9
On Forums: 9 years 8 months
Thanks: 1747 time(s)
Sweden


Третьесорт, произношение вокалиста напрягает.
Go to the top of the page
  Insert nick Quick quote
+Quote Post
post Oct 22 2017, 10:13:52
Post #3

Экскадрилия Утуггофф. УУУ...ЖЖЖ...
**********
Group: Металариец
Posts: 1,181
Releases: 0
From: н.п. Большие Утюги
On Forums: 5 years 6 months
Thanks: 373 time(s)
Russian Federation


Стилистическое продолжение альбома 15го года. По мне тот же софт мдм, он же - пост мдм. Сабж с т.з. мелодий будет слабей 15го. Но отдаю должное парням, группа играет оригинальную и вместе с тем мелодичную музыку, ибо в подобе не играет никто. Подобную нишу возможно подвергать дальнейшей модернизации и улучшению, запас есть. (IMG:style_emoticons/default/9.gif)
Go to the top of the page
  Insert nick Quick quote
+Quote Post

Reply to this topicStart new topic
1 User(s) are reading this topic (1 Guests and 0 Anonymous Users)
0 Members:

 



- Lo-Fi Version Support form
Copyrights and abuse reports form
Time is now: 20th September 2018 - 19:32:24