Welcome Guest ( Log In | Register )

> Masqued - The Light In The Dark (2017), Progressive Metal
post Oct 13 2017, 00:08:19
Post #1

Аннигилятор пивА
Group Icon
Group: V.I.P
Posts: 46,856
Releases: 14075
From: Koenigsberg - TILZIT
On Forums: 12 years 3 weeks
Thanks: 312352 time(s)
Russian Federation


(IMG:https://metalarea.org/images/audiocovers/2017_Oct/acov_tid296100_thumb.jpg)

*Artist: Masqued
*Album: The Light In The Dark
*Year: 2017
*Genre: Progressive Metal
*Country: United States (IMG:https://metalarea.org/forum/style_images/flags/United%20States.png)
*Format: mp3@CBR320kbps
*Size: 109MB

Tracklist:
01. A New Beginning
02. The Light in the Dark
03. The Call
04. Let Go
05. Hypnotized
06. Bullet by Bullet
07. The Other Side
08. Broken
09. Rise Up
******************************
Total playing time: 46:51



Extended info
Jon Allen - Drums
Drew Creel - Guitar
Shane Dubose - Bass/Vocals
Eric Halpern - Guitar
Steffany Johnston - Vocals
Adam Rawlings - Keyboards


Technical info
(IMG:https://metalarea.org/images/spectrogram/2017_Oct/e156c09ff6d840fe755539ebf7cf5c86.png)
Input File: 03 The Call.mp3
Channels : 2
Sample Rate : 44100
Precision : 16-bit
Duration : 00:04:38.65 = 12288377 samples = 20898.6 CDDA sectors
File Size : 11.4M
Bit Rate : 328k
Sample Encoding: MPEG audio (layer I, II or III)
Comments :
Title=The Call
Artist=Masqued
Album=The Light in the Dark
Tracknumber=3/9
Year=2017
Discnumber=1/1



Register


Go to the top of the page
  Insert nick Quick quote
+Quote Post
 
Start new topic
Replies (1 - 3)
post Oct 13 2017, 04:02:08
Post #2

Dark Ambient Shoujo
*********
Group: Металариец
Posts: 982
Releases: 1
On Forums: 9 years 5 months
Thanks: 483 time(s)
Russian Federation


Бабища страшна - а значит, должна уметь петь (IMG:style_emoticons/default/25.gif)
По превью особого прога не заметил, но скачаю, пожалуй.
Go to the top of the page
  Insert nick Quick quote
+Quote Post
post Oct 19 2017, 14:08:11
Post #3

Ъ
**************
Group: Металариец
Posts: 9,066
Releases: 9
On Forums: 9 years 5 months
Thanks: 1718 time(s)
Sweden


На раз послушать можно в принципе, но я тремя треками ограничился.
Go to the top of the page
  Insert nick Quick quote
+Quote Post
post Oct 19 2017, 15:33:22
Post #4

21st Century Schizoid Man
**************
Group: Металариец
Posts: 5,150
Releases: 67
From: Moscow
On Forums: 10 years 1 month
Thanks: 4061 time(s)
Russian Federation


ЦИТАТА(Dreamtale @ Oct 13 2017, 06:02:08) *
Бабища страшна - а значит, должна уметь петь (IMG:style_emoticons/default/25.gif)

Не сказал бы, что страшна. Я так понимаю, это автоматом снижает рейтинг музыки. (IMG:style_emoticons/default/1488.gif)

Доп.вокал в превьюхе - ваще непонятно зачем. Не умеешь петь, не отвлекайся, басила. (IMG:style_emoticons/default/21.gif)

И не только в превьюхе. Портит всё впечатление, bitch.

Go to the top of the page
  Insert nick Quick quote
+Quote Post

Reply to this topicStart new topic
1 User(s) are reading this topic (1 Guests and 0 Anonymous Users)
0 Members:

 



- Lo-Fi Version Support form
Copyrights and abuse reports form
Time is now: 23rd June 2018 - 01:42:44