Welcome Guest ( Log In | Register )

 
Reply to this topicStart new topic
> Thrashsquatch - Thrashsquatch! [ep] (2017), Thrash Metal/Crossover
post Oct 13 2017, 00:15:50
Post #1

Правь статус, ####!111
**************
Group: Металариец
Posts: 14,312
Releases: 9926
From: Г.Харьков
On Forums: 6 years 4 months
Thanks: 162916 time(s)
Unknown


(IMG:https://metalarea.org/images/audiocovers/2017_Oct/acov_tid296101_thumb.jpg)

*Artist: Thrashsquatch
*Album: Thrashsquatch! [ep]
*Year: 2017
*Genre: Thrash Metal/Crossover
*Country: United Kingdom (IMG:https://metalarea.org/forum/style_images/flags/United%20Kingdom.png)
*Format: mp3@CBR320kbps
*Size: 38MB

Tracklist:
01. Man Eating Squid 02:58
02. Am I Real!? 02:34
03. Black Hole 02:20
04. Thrashsquatch 03:06
05. Rise of the Robots 03:54
06. Thrash Til Death 03:08
******************************
Total playing time: 18:00



Extended info


Technical info
(IMG:https://metalarea.org/images/spectrogram/2017_Oct/9f52bfab9a16519f7818aec59d4dc077.png)
Input File: 02 - Am I Real.mp3
Channels : 2
Sample Rate : 44100
Precision : 16-bit
Duration : 00:02:34.09 = 6795237 samples = 11556.5 CDDA sectors
File Size : 6.16M
Bit Rate : 320k
Sample Encoding: MPEG audio (layer I, II or III)
Comments :
Title=Am I Real!?
Artist=Thrashsquatch!
Album=Thrashsquatch!
Tracknumber=2/6
Year=2017
Genre=Thrash/Crossover



Register


Go to the top of the page
  Insert nick Quick quote
+Quote Post

Reply to this topicStart new topic
1 User(s) are reading this topic (1 Guests and 0 Anonymous Users)
0 Members:

 



- Lo-Fi Version Support form
Copyrights and abuse reports form
Time is now: 24th September 2018 - 12:09:19