Welcome Guest ( Log In | Register )

> Alien Encounters - A Brief History Of The Multiverse (2017), Progressive Metal
post Oct 13 2017, 00:36:53
Post #1

Аннигилятор пивА
Group Icon
Group: V.I.P
Posts: 45,735
Releases: 13651
From: Koenigsberg - TILZIT
On Forums: 11 years 8 months
Thanks: 302121 time(s)
Russian Federation


(IMG:https://metalarea.org/images/audiocovers/2017_Oct/acov_tid296102_thumb.jpg)

*Artist: Alien Encounters
*Album: A Brief History Of The Multiverse
*Year: 2017
*Genre: Progressive Metal
*Country: France (IMG:https://metalarea.org/forum/style_images/flags/France.png)
*Format: mp3@CBR320kbps
*Size: 83MB

Tracklist:
01. A Brief History of the Multiverse
02. Cosmic Enigma
03. Hourglass
04. Cosmic Inflation
05. Theological Debate
06. Invisible Creator
07. God or the Multiverse
08. The Big Cosmic Machine
******************************
Total playing time: 39:25



Extended info
Drums: Laurent Bourgin
Bass: Alex Collard
Keys: Florent Chatelier
Guitars: Ayman Mokdad
Vocals: Fabrice Garcia


Technical info
(IMG:https://metalarea.org/images/spectrogram/2017_Oct/1ab1bb8bbbae3f07cd6bd7437351204e.png)
Input File: 02 Cosmic Enigma.mp3
Channels : 2
Sample Rate : 44100
Precision : 16-bit
Duration : 00:05:10.42 = 13689478 samples = 23281.4 CDDA sectors
File Size : 12.5M
Bit Rate : 323k
Sample Encoding: MPEG audio (layer I, II or III)
Comments :
Title=Cosmic Enigma
Artist=Alien Encounters
Album=A Brief History of the Multiverse
Tracknumber=2/8
Year=2017
Genre=17
Discnumber=1/1



Register


Вернуться к началу страницы
  Insert nick Quick quote
+Цитировать сообщение
 
Создать новую тему
Replies (1 - 1)
post Oct 13 2017, 05:42:23
Post #2

Аннигилятор пивА
Group Icon
Group: V.I.P
Posts: 45,735
Releases: 13651
From: Koenigsberg - TILZIT
On Forums: 11 years 8 months
Thanks: 302121 time(s)
Russian Federation


MIRROR
Register


Thanks:
Вернуться к началу страницы
  Insert nick Quick quote
+Цитировать сообщение

ОтветитьСоздать новую тему
1 User(s) are reading this topic (1 Guests and 0 Anonymous Users)
0 Members:

 



- Lo-Fi Version Support form
Copyrights and abuse reports form
Time is now: 19th February 2018 - 20:36:33