Welcome Guest ( Log In | Register )

> Witherer - A Place To Bury Strangers (2017), Progressive Death Metal/Djent
post Oct 13 2017, 00:53:15
Post #1

Правь статус, ####!111
**************
Group: Металариец
Posts: 14,343
Releases: 9939
From: Г.Харьков
On Forums: 6 years 4 months
Thanks: 163091 time(s)
Unknown


(IMG:https://metalarea.org/images/audiocovers/2017_Oct/acov_tid296103_thumb.jpg)

*Artist: Witherer
*Album: A Place To Bury Strangers
*Year: 2017
*Genre: Progressive Death Metal/Djent
*Country: United States (IMG:https://metalarea.org/forum/style_images/flags/United%20States.png)
*Format: mp3@CBR320kbps
*Size: 104MB

Tracklist:
01. Buried in the Rain
02. Acres of Dead
03. Beware the Astronaut
04. They Tore the Sky
05. In the Shadows of Giants
06. Embers of Yesterday
07. Torches
08. You Don’t Know Richard
09. The Salted Earth
10. Last Gasp
11. Emergency Room Vacancy
12. Holes in the Ocean
******************************
Total playing time: 49:47



Extended info
Mike Sedlock-Guitars
Nick Durdan-Bass, Production
Wade Ball-Vocals
Steven Kirkreit-Guitars



Technical info
(IMG:https://metalarea.org/images/spectrogram/2017_Oct/79b3fd3a4041613fa93c261573de0f8b.png)
Input File: 02 - Acres of Dead.mp3
Channels : 2
Sample Rate : 44100
Precision : 16-bit
Duration : 00:03:54.71 = 10350667 samples = 17603.2 CDDA sectors
File Size : 9.39M
Bit Rate : 320k
Sample Encoding: MPEG audio (layer I, II or III)
Comments :
Title=Acres of Dead
Artist=Witherer
Album=A Place to Bury Strangers
Tracknumber=2/12
Year=2017
Genre=22



Register


Go to the top of the page
  Insert nick Quick quote
+Quote Post
 
Start new topic
Replies (1 - 1)
post May 16 2018, 22:25:31
Post #2

but I'm white and furry
**********
Group: Металариец
Posts: 1,100
Releases: 388
From: Москва
On Forums: 12 years 7 months
Thanks: 4730 time(s)
Russian Federation


Go to the top of the page
  Insert nick Quick quote
+Quote Post

Reply to this topicStart new topic
2 User(s) are reading this topic (2 Guests and 0 Anonymous Users)
0 Members:

 



- Lo-Fi Version Support form
Copyrights and abuse reports form
Time is now: 26th September 2018 - 00:53:55