Welcome Guest ( Log In | Register )

 
Reply to this topicStart new topic
> Kaustik - In Bastards We Trust (2017), Thrash/Groove Metal
post Oct 13 2017, 01:54:16
Post #1

Правь статус, ####!111
**************
Group: Металариец
Posts: 14,313
Releases: 9926
From: Г.Харьков
On Forums: 6 years 4 months
Thanks: 162919 time(s)
Unknown


(IMG:https://metalarea.org/images/audiocovers/2017_Oct/acov_tid296104_thumb.jpg)

*Artist: Kaustik
*Album: In Bastards We Trust
*Year: 2017
*Genre: Thrash/Groove Metal
*Country: United States (IMG:https://metalarea.org/forum/style_images/flags/United%20States.png)
*Format: mp3@CBR320kbps
*Size: 92MB

Tracklist:
1. In Bastards We Trust
2. Scars Of Violence
3. 2x333
4. Fence Walker
5. B.Y.F.H.
6. Hand Over Fist
7. Dinner In Hell
8. Black Collar
9. Casualty Of The Times
10. Less PC, More Fuck You
11. Fool's Gold
******************************
Total playing time: 39:11



Extended info
Robbo- Vocals & Bass
Ryan- Guitar
Elan- Guitar
Chris-Drums



Technical info
(IMG:https://metalarea.org/images/spectrogram/2017_Oct/eb4fb7b33972f0156e921465cb9dfebe.png)
Input File: 04 - Fence Walker.mp3
Channels : 2
Sample Rate : 44100
Precision : 16-bit
Duration : 00:04:01.07 = 10631275 samples = 18080.4 CDDA sectors
File Size : 9.90M
Bit Rate : 329k
Sample Encoding: MPEG audio (layer I, II or III)
Comments :
Title=Fence Walker
Artist=Kaustik
Album=In Bastards We Trust
Tracknumber=4/11
Year=2017



Register


Go to the top of the page
  Insert nick Quick quote
+Quote Post

Reply to this topicStart new topic
1 User(s) are reading this topic (1 Guests and 0 Anonymous Users)
0 Members:

 



- Lo-Fi Version Support form
Copyrights and abuse reports form
Time is now: 24th September 2018 - 13:32:20