Welcome Guest ( Log In | Register )

> Ancient VVisdom - 33 (2017), Doom Metal/Occult Rock (D4)
post Oct 13 2017, 04:29:25
Post #1

Аннигилятор пивА
Group Icon
Group: V.I.P
Posts: 45,695
Releases: 13643
From: Koenigsberg - TILZIT
On Forums: 11 years 8 months
Thanks: 301930 time(s)
Russian Federation


(IMG:https://metalarea.org/images/audiocovers/2017_Oct/acov_tid296106_thumb.jpg)

*Artist: Ancient VVisdom
*Album: 33
*Year: 2017
*Genre: Doom Metal/Occult Rock
*Country: United States (IMG:https://metalarea.org/forum/style_images/flags/United%20States.png)
*Format: mp3@CBR320kbps
*Size: 72MB

Tracklist:
01. Ascending Eternally
02. Light Of Lucifer
03. In The Name Of Satan
04. True Will
05. The Infernal One
06. Summoning Eternal Light
07. Rise Fallen Angel
08. 33
09. The Great Beast
10. Lux
11. Dispelling Darkness
******************************
Total playing time: 33:21




Extended info
"33" is the fourth studio album from Cleveland, Ohio’s ANCIENT VVISDOM. This time around, the perennial nucleus of brothers Nathan “Opposition” Jochum (vocals, acoustic guitar, kick drum) and Michael Jochum (guitar, back up vocals) is rounded out by new band member Connor Metsker on bass.



Technical info
(IMG:https://metalarea.org/images/spectrogram/2017_Oct/9191c4b1669574d44feb567110f8fa8a.png)
Input File: 02-ancient_vvisdom-light_of_lucifer.mp3
Channels : 2
Sample Rate : 44100
Precision : 16-bit
Duration : 00:02:36.44 = 6898960 samples = 11732.9 CDDA sectors
File Size : 6.26M
Bit Rate : 320k
Sample Encoding: MPEG audio (layer I, II or III)
Comments :
Title=Light of Lucifer
Artist=Ancient VVisdom
Album=33
Tracknumber=2/11
Year=2017
Genre=9



Register


Вернуться к началу страницы
  Insert nick Quick quote
+Цитировать сообщение
 
Создать новую тему
Replies (1 - 3)
post Oct 13 2017, 09:39:31
Post #2

hearer & reader
**************
Group: Металариец
Posts: 5,978
Releases: 78
From: Moscow
On Forums: 10 years 5 months
Thanks: 6217 time(s)
Russian Federation


Как они вылезли в формат прошлым альбомом - ума не приложу...
Вернуться к началу страницы
  Insert nick Quick quote
+Цитировать сообщение
post Oct 13 2017, 14:20:06
Post #3

Leegte
**********
Group: Металариец
Posts: 1,299
Releases: 14
From: Kiovia
On Forums: 5 years 10 months
Thanks: 1845 time(s)
Ukraine


По ошибке подумал, что швед воскресил проект...(IMG:style_emoticons/default/smile2.gif) Каждый раз, видя название, думаю по ошибке.


Thanks:
(1) DMIYUR,
Вернуться к началу страницы
  Insert nick Quick quote
+Цитировать сообщение
post Oct 13 2017, 14:38:39
Post #4

Аннигилятор пивА
Group Icon
Group: V.I.P
Posts: 45,695
Releases: 13643
From: Koenigsberg - TILZIT
On Forums: 11 years 8 months
Thanks: 301930 time(s)
Russian Federation


ЦИТАТА(AHBAnep @ Oct 13 2017, 08:39:31) *
Как они вылезли в формат прошлым альбомом - ума не приложу...

ну тут еще погрузнее, ващет нормальный такой тяжеленький Danzig/Ghost
Вернуться к началу страницы
  Insert nick Quick quote
+Цитировать сообщение

ОтветитьСоздать новую тему
2 User(s) are reading this topic (2 Guests and 0 Anonymous Users)
0 Members:

 



- Lo-Fi Version Support form
Copyrights and abuse reports form
Time is now: 18th February 2018 - 04:25:44