Welcome Guest ( Log In | Register )

 
ОтветитьСоздать новую тему
> Avund - Förfall (2017), Black Metal/Sludge/Crust
post Oct 13 2017, 04:33:12
Post #1

Serial Uploader
Group Icon
Group: V.I.P
Posts: 31,402
Releases: 29737
From: Lithuania
On Forums: 9 years 8 months
Thanks: 341526 time(s)
Lithuania


(IMG:http://metalarea.org/images/audiocovers/2017_Oct/acov_tid296107_thumb.jpg)

*Artist: Avund
*Album: Förfall
*Year: 2017
*Genre: Black Metal/Sludge/Crust
*Country: Sweden (IMG:http://metalarea.org/forum/style_images/flags/Sweden.png)
*Format: mp3@CBR320kbps
*Size: 83MB

Tracklist:
01. Avtrubbad från nuet 03:10
02. En avgrund inombords 04:00
03. Den tunga bördan 03:34
04. Dyster framtidsutsikt 04:36
05.Rädslan föder förtvivlan 03:31
06. Ödets timma 04:54
07. Jag vänder mig om 03:48
08. Vedergällning 08:20
******************************
Total playing time: 35:53



Technical info
(IMG:http://metalarea.org/images/spectrogram/2017_Oct/b77190a623d866f81cf3957dd0293985.png)
Input File: 02. En avgrund inombords.mp3
Channels : 2
Sample Rate : 44100
Precision : 16-bit
Duration : 00:04:00.54 = 10607594 samples = 18040.1 CDDA sectors
File Size : 9.70M
Bit Rate : 323k
Sample Encoding: MPEG audio (layer I, II or III)
Comments :
Title=En avgrund inombords
Artist=Avund
Album=Forfall
Tracknumber=2/8
Year=2017



Register


Вернуться к началу страницы
  Insert nick Quick quote
+Цитировать сообщение

ОтветитьСоздать новую тему
1 User(s) are reading this topic (1 Guests and 0 Anonymous Users)
0 Members:

 



- Lo-Fi Version Support form
Copyrights and abuse reports form
Time is now: 19th February 2018 - 20:33:32