Welcome Guest ( Log In | Register )

> Aredreds - Akairo (2017), Heavy Metal
post Oct 13 2017, 04:48:17
Post #1

Serial Uploader
Group Icon
Group: V.I.P
Posts: 31,402
Releases: 29737
From: Lithuania
On Forums: 9 years 8 months
Thanks: 341526 time(s)
Lithuania


(IMG:http://metalarea.org/images/audiocovers/2017_Oct/acov_tid296108_thumb.jpg)

*Artist: Aredreds
*Album: Akairo
*Year: 2017
*Genre: Heavy Metal
*Country: Japan (IMG:http://metalarea.org/forum/style_images/flags/Japan.png)
*Format: mp3@CBR320kbps
*Size: 74MB

Tracklist:
01. Akatsuki No Blazing Heart
02. Honoo -Into the Night-
03. Hagane No kokuin
04. Boukyaku No Fade Away
05. Tasogare No Misty Eyes
06. Inuwashi No Hisyou -Flight of Eagle- (Instrumental)
07. Tsuioku No Face
08. Romance Promenade
******************************
Total playing time: 31:50



Technical info
(IMG:http://metalarea.org/images/spectrogram/2017_Oct/094bfc16e43f50802e2439e8099612f8.png)
Input File: 02. Honoo -Into the Night-.mp3
Channels : 2
Sample Rate : 44100
Precision : 16-bit
Duration : 00:04:21.93 = 11551157 samples = 19644.8 CDDA sectors
File Size : 10.6M
Bit Rate : 325k
Sample Encoding: MPEG audio (layer I, II or III)
Comments :
Title=Honoo -Into the Night-
Artist=Aredreds
Album=Akairo
Tracknumber=2/8
Year=2017



Register


Thanks:
Вернуться к началу страницы
  Insert nick Quick quote
+Цитировать сообщение
 
Создать новую тему
Replies (1 - 2)
post Oct 13 2017, 09:37:22
Post #2

hearer & reader
**************
Group: Металариец
Posts: 5,983
Releases: 78
From: Moscow
On Forums: 10 years 5 months
Thanks: 6218 time(s)
Russian Federation


Тизер
Вернуться к началу страницы
  Insert nick Quick quote
+Цитировать сообщение
post Oct 15 2017, 04:17:27
Post #3

Победитель судьбы
**************
Group: Металариец
Posts: 4,845
Releases: 0
From: Страны Мамонтов
On Forums: 11 years 14 hours
Thanks: 1624 time(s)
Antarctica


Что-то, судя по трэк-листу, отрицалово какое-то...
Вернуться к началу страницы
  Insert nick Quick quote
+Цитировать сообщение

ОтветитьСоздать новую тему
1 User(s) are reading this topic (1 Guests and 0 Anonymous Users)
0 Members:

 



- Lo-Fi Version Support form
Copyrights and abuse reports form
Time is now: 19th February 2018 - 20:35:18