Welcome Guest ( Log In | Register )

> Scourge - Roam In Purgatory [ep] (2017), Slamming Brutal Death Metal
post Oct 13 2017, 04:52:04
Post #1

Аннигилятор пивА
Group Icon
Group: V.I.P
Posts: 48,907
Releases: 14979
From: Koenigsberg - TILZIT
On Forums: 12 years 3 months
Thanks: 327881 time(s)
Russian Federation


(IMG:https://metalarea.org/images/audiocovers/2017_Oct/acov_tid296109_thumb.jpg)

*Artist: Scourge
*Album: Roam In Purgatory [ep]
*Year: 2017
*Genre: Slamming Brutal Death Metal
*Country: Belgium (IMG:https://metalarea.org/forum/style_images/flags/Belgium.png)
*Format: mp3@CBR320kbps
*Size: 30MB

Tracklist:
1. Roam in Purgatory 03:14
2. Throne of the Horned One 03:42
3. Thy Shrines' Reprisal 02:51
4. Abaddon the Destroyer 04:04
******************************
Total playing time: 13:51




Extended info
scene

Quinten - Bass (2016-present) See also: Daemon
Yannick - Drums (2016-present) See also: ex-Chikatilo, xViciousx
Hamza - Guitars (2016-present) See also: Daemon, Legion to Kill
Philippe - Guitars (2016-present) See also: ex-Chikatilo
Cedric - Vocals (2016-present) See also: Legion to Kill
Denis - Vocals (2016-present) See also: Daemon
Guest:
Don Campan - Vocals (Hate Diplomacy, ex-Waking the Cadaver, ex-Death to Honor)


Technical info
(IMG:https://metalarea.org/images/spectrogram/2017_Oct/14ec351124412928d1290e34ad87e6cf.png)
Input File: 03-scourge-thy_shrines_reprisal.mp3
Channels : 2
Sample Rate : 44100
Precision : 16-bit
Duration : 00:02:51.36 = 7556800 samples = 12851.7 CDDA sectors
File Size : 6.85M
Bit Rate : 320k
Sample Encoding: MPEG audio (layer I, II or III)
Comments :
Title=Thy Shrines' Reprisal
Artist=Scourge
Album=Roam In Purgatory
Tracknumber=3/4
Year=2017
Genre=22



Register


Go to the top of the page
  Insert nick Quick quote
+Quote Post
 
Start new topic
Replies (1 - 1)
post Oct 15 2017, 18:37:31
Post #2

Два Литра
**
Group: Завсегдатай
Posts: 165
Releases: 0
From: Москва
On Forums: 10 years 2 weeks
Thanks: 13 time(s)
Russian Federation


Вот шельмы, отменно наваливают!
Go to the top of the page
  Insert nick Quick quote
+Quote Post

Reply to this topicStart new topic
1 User(s) are reading this topic (1 Guests and 0 Anonymous Users)
0 Members:

 



- Lo-Fi Version Support form
Copyrights and abuse reports form
Time is now: 24th September 2018 - 13:00:38