Welcome Guest ( Log In | Register )

> Altar Of Bones - Dehumanizer (2017), Death Metal
post Oct 13 2017, 05:57:44
Post #1

Serial Uploader
Group Icon
Group: V.I.P
Posts: 31,412
Releases: 29747
From: Lithuania
On Forums: 9 years 8 months
Thanks: 341610 time(s)
Lithuania


(IMG:http://metalarea.org/images/audiocovers/2017_Oct/acov_tid296111_thumb.jpg)

*Artist: Altar Of Bones
*Album: Dehumanizer
*Year: 2017
*Genre: Death Metal
*Country: South Africa (IMG:http://metalarea.org/forum/style_images/flags/South%20Africa.png)
*Format: mp3@CBR320kbps
*Size: 74MB

Tracklist:
01. Intro
02. Lillith
03. The Heathen
04. Dehumanizer
05. The Devils March
06. Aokigahara (Remastered)
******************************
Total playing time: 32:14

Technical info
(IMG:http://metalarea.org/images/spectrogram/2017_Oct/19f41a9cc08126ec6e5f536c5c6824c2.png)
Input File: 02. Lillith.mp3
Channels : 2
Sample Rate : 44100
Precision : 16-bit
Duration : 00:05:42.58 = 15107690 samples = 25693.4 CDDA sectors
File Size : 13.8M
Bit Rate : 321k
Sample Encoding: MPEG audio (layer I, II or III)
Comments :
Title=Lillith
Artist=Altar of Bones
Album=Dehumanizer
Tracknumber=2/6
Year=2017



Register


Вернуться к началу страницы
  Insert nick Quick quote
+Цитировать сообщение
 
Создать новую тему
Replies (1 - 3)
post Oct 13 2017, 09:33:44
Post #2

hearer & reader
**************
Group: Металариец
Posts: 5,983
Releases: 78
From: Moscow
On Forums: 10 years 5 months
Thanks: 6218 time(s)
Russian Federation




неинтересно


Thanks:
(1) Andrew,
Вернуться к началу страницы
  Insert nick Quick quote
+Цитировать сообщение
post Oct 13 2017, 20:24:19
Post #3

MDM-Thrash Metal
**************
Group: Металариец
Posts: 6,168
Releases: 401
From: Одесса
On Forums: 10 years 6 months
Thanks: 11708 time(s)
Ukraine


Капец, вокал настолько раздрожающе-отталкивающий, что даже один трек тяжело осилить...
Вернуться к началу страницы
  Insert nick Quick quote
+Цитировать сообщение
post Oct 14 2017, 07:30:23
Post #4

Два Литра
**
Group: Завсегдатай
Posts: 133
Releases: 1
On Forums: 5 years 11 months
Thanks: 72 time(s)
Russian Federation


С превью пробило на дикий ржач :D Это ж надо было так записаться, в наше-то время!
Вернуться к началу страницы
  Insert nick Quick quote
+Цитировать сообщение

ОтветитьСоздать новую тему
1 User(s) are reading this topic (1 Guests and 0 Anonymous Users)
0 Members:

 



- Lo-Fi Version Support form
Copyrights and abuse reports form
Time is now: 20th February 2018 - 22:26:40