Welcome Guest ( Log In | Register )

> Calques - Civilizing (2017), Black Metal
post Oct 13 2017, 06:02:56
Post #1

Serial Uploader
Group Icon
Group: V.I.P
Posts: 33,060
Releases: 31345
From: Lithuania
On Forums: 10 years 3 months
Thanks: 358586 time(s)
Lithuania


(IMG:http://metalarea.org/images/audiocovers/2017_Oct/acov_tid296112_thumb.jpg)

*Artist: Calques
*Album: Civilizing
*Year: 2017
*Genre: Black Metal
*Country: United States (IMG:http://metalarea.org/forum/style_images/flags/United%20States.png)
*Format: mp3@CBR320kbps
*Size: 59MB

Tracklist:
01. Periurbanization 02:07
02. Exurbanisation 06:28
03. Galvanization 06:44
04. Conversation 04:20
05. Decomposition 05:56
******************************
Total playing time: 25:35



Technical info
(IMG:http://metalarea.org/images/spectrogram/2017_Oct/33c457063ddd9eb5be20472f320a3fd4.png)
Input File: 02. Exurbanisation.mp3
Channels : 2
Sample Rate : 44100
Precision : 16-bit
Duration : 00:06:28.38 = 17127338 samples = 29128.1 CDDA sectors
File Size : 15.6M
Bit Rate : 321k
Sample Encoding: MPEG audio (layer I, II or III)
Comments :
Title=Exurbanisation
Artist=Calques
Album=Civilizing
Tracknumber=2/5
Year=2017



Register


Go to the top of the page
  Insert nick Quick quote
+Quote Post
 
Start new topic
Replies (1 - 2)
post Oct 13 2017, 08:08:53
Post #2

Шесть Литров
******
Group: Металариец
Posts: 649
Releases: 0
On Forums: 10 years 11 months
Thanks: 235 time(s)
Belarus


по стилю blackened noise


Thanks:
(1) ShmiT,
Go to the top of the page
  Insert nick Quick quote
+Quote Post
post Dec 11 2017, 18:53:52
Post #3

Правь статус, ####!111
**************
Group: Металариец
Posts: 6,610
Releases: 0
From: Москва
On Forums: 9 years 1 month
Thanks: 11436 time(s)
Russian Federation


Register
320


Thanks:
Go to the top of the page
  Insert nick Quick quote
+Quote Post

Reply to this topicStart new topic
1 User(s) are reading this topic (1 Guests and 0 Anonymous Users)
0 Members:

 



- Lo-Fi Version Support form
Copyrights and abuse reports form
Time is now: 20th September 2018 - 20:48:52