Welcome Guest ( Log In | Register )

> Solfernus - Neoantichrist (2017), Black Metal
post Oct 13 2017, 06:04:36
Post #1

Аннигилятор пивА
Group Icon
Group: V.I.P
Posts: 46,786
Releases: 14052
From: Koenigsberg - TILZIT
On Forums: 12 years 3 weeks
Thanks: 311826 time(s)
Russian Federation


(IMG:https://metalarea.org/images/audiocovers/2017_Oct/acov_tid296113_thumb.jpg)

*Artist: Solfernus
*Album: Neoantichrist
*Year: 2017
*Genre: Black Metal
*Country: Czech Republic (IMG:https://metalarea.org/forum/style_images/flags/Czech%20Republic.png)
*Format: mp3@CBR320kbps
*Size: 94MB

Tracklist:
01. Ignis ~ Dominion
02. Glorifired
03. Mistresserpent
04. Pray for Chaos!
05. That One Night
06. Between Two Deaths
07. Once Upon a Time in the East
08. My Aurorae
09. Neoantichrist
10. Stone in a River
******************************
Total playing time: 39:23




Extended info

 ! 

Igor Hubík - Guitars (Root, Equirhodont, Entrails, Hypnos, Inner Fear, Big Boss, Behemoth)
Paul Dread - Drums (Root, Thief)
Khaablus - Vocals See (Inner Fear, Asgard)
Parambucha - Bass (Asgard, Big Boss)
 








Technical info
(IMG:https://metalarea.org/images/spectrogram/2017_Oct/0fc64cd3f00997e98e78b3f890c542f4.png)
Input File: 02.Glorifired.mp3
Channels : 2
Sample Rate : 44100
Precision : 16-bit
Duration : 00:03:17.87 = 8726199 samples = 14840.5 CDDA sectors
File Size : 8.29M
Bit Rate : 335k
Sample Encoding: MPEG audio (layer I, II or III)
Comments :
Title=Glorifired
Artist=Solfernus
Album=Neoantichrist
Tracknumber=2
Year=2017
Genre=Black Metal



Register


Go to the top of the page
  Insert nick Quick quote
+Quote Post
 
Start new topic
Replies (1 - 1)
post Oct 14 2017, 05:16:18
Post #2

Аннигилятор пивА
Group Icon
Group: V.I.P
Posts: 46,786
Releases: 14052
From: Koenigsberg - TILZIT
On Forums: 12 years 3 weeks
Thanks: 311826 time(s)
Russian Federation


MIRROR
Register


Thanks:
Go to the top of the page
  Insert nick Quick quote
+Quote Post

Reply to this topicStart new topic
1 User(s) are reading this topic (1 Guests and 0 Anonymous Users)
0 Members:

 



- Lo-Fi Version Support form
Copyrights and abuse reports form
Time is now: 19th June 2018 - 03:40:58