Welcome Guest ( Log In | Register )

> Drunk In Hell - Drunk In Hell (2017), Black/Doom Metal
post Oct 13 2017, 06:12:09
Post #1

Serial Uploader
Group Icon
Group: V.I.P
Posts: 32,736
Releases: 31034
From: Lithuania
On Forums: 10 years 2 weeks
Thanks: 355746 time(s)
Lithuania


(IMG:http://metalarea.org/images/audiocovers/2017_Oct/acov_tid296114_thumb.jpg)

*Artist: Drunk In Hell
*Album: Drunk In Hell
*Year: 2017
*Genre: Black/Doom Metal
*Country: Netherlands (IMG:http://metalarea.org/forum/style_images/flags/Netherlands.png)
*Format: mp3@CBR320kbps
*Size: 89MB

Tracklist:
01. I'm an Arsehole
02. Sick Sick Sex
03. Bitch Boy
04. I'm Not Laughing
05. Born Sick
06. Chick Flick
07. Gag
08. Walking Abortion
******************************
Total playing time: 38:51




Technical info
(IMG:http://metalarea.org/images/spectrogram/2017_Oct/c383b87031bee6173ea45a44e2f9fc05.png)
Input File: 02. Sick Sick Sex.mp3
Channels : 2
Sample Rate : 44100
Precision : 16-bit
Duration : 00:04:25.48 = 11707844 samples = 19911.3 CDDA sectors
File Size : 10.6M
Bit Rate : 320k
Sample Encoding: MPEG audio (layer I, II or III)
Comments :
Title=Sick Sick Sex
Artist=Drunk In Hell
Album=Drunk in Hell
Tracknumber=2/8
Year=2017



Register


Go to the top of the page
  Insert nick Quick quote
+Quote Post
 
Start new topic
Replies (1 - 2)
post Oct 13 2017, 07:28:01
Post #2

Кожаный ублюдок
**************
Group: Металариец
Posts: 2,814
Releases: 6
From: Алчевск (early) Некросибирск (now)
On Forums: 9 years 1 month
Thanks: 1575 time(s)
Russian Federation


Облога прям по канонам стиля (IMG:style_emoticons/default/1488.gif)


Thanks:
(1) avather,
Go to the top of the page
  Insert nick Quick quote
+Quote Post
post Oct 13 2017, 08:05:34
Post #3

Шесть Литров
******
Group: Металариец
Posts: 619
Releases: 0
On Forums: 10 years 8 months
Thanks: 201 time(s)
Belarus


Качево так. Понравилось.
Go to the top of the page
  Insert nick Quick quote
+Quote Post

Reply to this topicStart new topic
1 User(s) are reading this topic (1 Guests and 0 Anonymous Users)
0 Members:

 



- Lo-Fi Version Support form
Copyrights and abuse reports form
Time is now: 23rd June 2018 - 01:43:42