Welcome Guest ( Log In | Register )

> И неформату есть предел.

Рэп/хип-хоп/шансон/поп удаляются. Для них есть свои порталы.

> Paura - Slowly Dying Of Survivor (2017), Hardcore (D10)
post Oct 14 2017, 04:38:26
Post #1

Аннигилятор пивА
Group Icon
Group: V.I.P
Posts: 48,776
Releases: 14911
From: Koenigsberg - TILZIT
On Forums: 12 years 3 months
Thanks: 326824 time(s)
Russian Federation


(IMG:https://metalarea.org/images/audiocovers/2017_Oct/acov_tid296159_thumb.jpg)

*Artist: Paura
*Album: Slowly Dying Of Survivor
*Year: 2017
*Genre: Hardcore
*Country: Brazil (IMG:https://metalarea.org/forum/style_images/flags/Brazil.png)
*Format: mp3@CBR320kbps
*Size: 80MB

Tracklist:
01. Urban Decay 3:01
02. Open All Borders 3:57
03. Fool's Gold Rush 2:40
04. No Competition in True Love 2:55
05. Call on All Sisters 2:05
06. Deny and Defy 2:34
07. Because We Care 3:36
08. Wisdom Hunt 3:08
09. Mayhem Skills 3:05
10. Design New Lines 3:05
11. Gay OK! 6:33
******************************
Total playing time: 36:39




Extended info
Voz: Fabio Prandini
Guitarra: Claudinei Ferreira
Guitarra : Rogério FR
Baixo e voz : Paulo Demutti
Bateria: João Limeira



Technical info
(IMG:https://metalarea.org/images/spectrogram/2017_Oct/886fab999aeba23d1d364033220ee6be.png)
Input File: 06 Deny and Defy.mp3
Channels : 2
Sample Rate : 44100
Precision : 16-bit
Duration : 00:02:34.35 = 6806791 samples = 11576.2 CDDA sectors
File Size : 6.31M
Bit Rate : 327k
Sample Encoding: MPEG audio (layer I, II or III)
Comments :
Title=Deny and Defy
Artist=Paura
Album=Slowly Dying of Survivor
Tracknumber=6/11
Year=2017
Genre=17
Discnumber=1/1



Register


Go to the top of the page
  Insert nick Quick quote
+Quote Post
 
Start new topic
Replies (1 - 1)
post Oct 14 2017, 13:16:09
Post #2

Аннигилятор пивА
Group Icon
Group: V.I.P
Posts: 48,776
Releases: 14911
From: Koenigsberg - TILZIT
On Forums: 12 years 3 months
Thanks: 326824 time(s)
Russian Federation


MIRROR
Register
Go to the top of the page
  Insert nick Quick quote
+Quote Post

Reply to this topicStart new topic
1 User(s) are reading this topic (1 Guests and 0 Anonymous Users)
0 Members:

 



- Lo-Fi Version Support form
Copyrights and abuse reports form
Time is now: 19th September 2018 - 10:17:58