Welcome Guest ( Log In | Register )

> И неформату есть предел.

Рэп/хип-хоп/шансон/поп удаляются. Для них есть свои порталы.

 
ОтветитьСоздать новую тему
> Flipper - Album Generic Flipper (1981), Punk/Hardcore Punk
post Oct 14 2017, 12:41:29
Post #1

Четыре Литра
****
Group: Металариец
Posts: 379
Releases: 20
On Forums: 4 years 4 months
Thanks: 662 time(s)
Unknown


(IMG:http://metalarea.org/images/audiocovers/2017_Oct/acov_tid296170_thumb.jpg)

*Artist: Flipper
*Album: Album Generic Flipper
*Year: 1981
*Genre: Punk/Hardcore Punk
*Country: United States (IMG:http://metalarea.org/forum/style_images/flags/United%20States.png)
*Format: mp3@CBR320kbps
*Size: 93MB

Tracklist:
01. Ever 2:56
02. Life Is Cheap 3:55
03. Shed No Tears 4:26
04. (I Saw You) Shine 8:31
05. The Way of the World 4:23
06. Life 4:44
07. Nothing 2:18
08. Living for the Depression 1:23
09. Sex Bomb 7:48
******************************
Total playing time: 40:24

Extended info
The predecessors of sludge metal (Melvins worshipped them) and the great inspiration for grunge.
Beautifully fucked-up classics.
In short, Flipper rules.


Technical info
(IMG:http://metalarea.org/images/spectrogram/2017_Oct/51ed9d55478570a1a4bdfcbd0ccdab5e.png)
Input File: 04 - (I Saw You) Shine.mp3
Channels : 2
Sample Rate : 44100
Precision : 16-bit
Duration : 00:08:33.33 = 22637897 samples = 38499.8 CDDA sectors
File Size : 20.5M
Bit Rate : 320k
Sample Encoding: MPEG audio (layer I, II or III)
Comments :
Title=(I Saw You) Shine
Artist=Flipper
Album=Generic
Tracknumber=4
Year=1981
Genre=Punk / Hardcore



Register


Вернуться к началу страницы
  Insert nick Quick quote
+Цитировать сообщение

ОтветитьСоздать новую тему
1 User(s) are reading this topic (1 Guests and 0 Anonymous Users)
0 Members:

 



- Lo-Fi Version Support form
Copyrights and abuse reports form
Time is now: 23rd February 2018 - 03:55:01


continue reading