Welcome Guest ( Log In | Register )

> И неформату есть предел.

Рэп/хип-хоп/шансон/поп удаляются. Для них есть свои порталы.

 
ОтветитьСоздать новую тему
> Mentors - The Illuminaughty (2017), Heavy Metal/Hard Rock/Punk (D5)
post Oct 15 2017, 11:44:16
Post #1

Три Литра
***
Group: Завсегдатай
Posts: 243
Releases: 144
On Forums: 9 years 3 days
Thanks: 1316 time(s)
Russian Federation


(IMG:http://metalarea.org/images/audiocovers/2017_Oct/acov_tid296205_thumb.jpg)

*Artist: Mentors
*Album: The Illuminaughty
*Year: 2017
*Genre: Heavy Metal/Hard Rock/Punk
*Country: United States (IMG:http://metalarea.org/forum/style_images/flags/United%20States.png)
*Format: mp3@CBR320kbps
*Size: 96MB

Tracklist:
01. Operation Alcohol 03:42
02. Things Go Better With Dope 03:00
03. Just Like El Duce 02:24
04. Good In Bed 01:43
05. More Than Your Mouth Can Hold 03:41
06. Keep Your Bitch Under Control 02:41
07. Grab Her By The Pussy 03:01
08. The Sluts Are Back 03:02
09. Lovin' You Really Sucks 02:28
10. King Of The Castle 04:36
11. Get Down And Fuck 02:48
12. Do You When I Wanna 02:04
13. We Were Screwin' In The Church 03:15
14. Watch Her Get Naked 03:39
******************************
Total playing time: 42:04

Technical info
(IMG:http://metalarea.org/images/spectrogram/2017_Oct/750b410e22f7a74ccdd1f7db9ec909c2.png)
Input File: 01 - Operation Alcohol.mp3
Channels : 2
Sample Rate : 44100
Precision : 16-bit
Duration : 00:03:42.17 = 9797873 samples = 16663 CDDA sectors
File Size : 8.89M
Bit Rate : 320k
Sample Encoding: MPEG audio (layer I, II or III)
Comments :
Title=Operation Alcohol
Artist=MENTORS
Album=The Illuminaughty
Tracknumber=1
Year=2017



Register


Thanks:
Вернуться к началу страницы
  Insert nick Quick quote
+Цитировать сообщение

ОтветитьСоздать новую тему
1 User(s) are reading this topic (1 Guests and 0 Anonymous Users)
0 Members:

 



- Lo-Fi Version Support form
Copyrights and abuse reports form
Time is now: 23rd February 2018 - 03:57:51