Welcome Guest ( Log In | Register )

> И неформату есть предел.

Рэп/хип-хоп/шансон/поп удаляются. Для них есть свои порталы.

> Slipknot - Day Of The Gusano [live] (2017), Nu-Metal (D14)
post Oct 17 2017, 14:00:30
Post #1

Два Литра
**
Group: Завсегдатай
Posts: 173
Releases: 64
From: Helvetia
On Forums: 5 years 3 weeks
Thanks: 1002 time(s)
Switzerland


(IMG:https://metalarea.org/images/audiocovers/2017_Oct/acov_tid296306_thumb.jpg)

*Artist: Slipknot
*Album: Day Of The Gusano [live]
*Year: 2017
*Genre: Nu-Metal
*Country: United States (IMG:https://metalarea.org/forum/style_images/flags/United%20States.png)
*Format: mp3@CBR320kbps
*Size: 182MB

Tracklist:
01. Sarcastrophe
02. The Heretic Anthem
03. Psychosocial
04. The Devil In I
05. Me Inside
06. Vermilion
07. Wait And Bleed
08. Prosthetics
09. Before I Forget
10. Eeyore
11. Duality
12. Custer
13. Spit It Out
14. Metabolic / 742617000027
15. (sic)
16. People = Shit
17. Surfacing / Til We Die
******************************
Total playing time: 1:19:56


(IMG:https://metalarea.org/images/myspace.png)
(IMG:https://metalarea.org/images/youtube.png)

Extended info
"Day Of The Gusano" documents the Iowa band's first-ever visit to Mexico in December 2015


Technical info
(IMG:https://metalarea.org/images/spectrogram/2017_Oct/5188b56b6e57581c185d16769e6562ba.png)
Input File: 08 - Prosthetics.mp3
Channels : 2
Sample Rate : 44100
Precision : 16-bit
Duration : 00:06:14.09 = 16497149 samples = 28056.4 CDDA sectors
File Size : 15.0M
Bit Rate : 320k
Sample Encoding: MPEG audio (layer I, II or III)
Comments :
Title=Prosthetics
Artist=Slipknot
Album=Day Of The Gusano
Tracknumber=8
Year=2017
Genre=Metal



Register


Вернуться к началу страницы
  Insert nick Quick quote
+Цитировать сообщение
 
Создать новую тему
Replies (1 - 3)
post Oct 17 2017, 22:15:51
Post #2
BAN
RO till
Feb 26 2018, 11:14:38



как всегда дурацкий сетлист, состоящий почти полностью из синглов. не люблю такое у всех групп. многие окуительные темы играются очень редко, либо никогда. а хиты задр*чиваются

тем более, у Slipknot практически каждая песня - хит
Вернуться к началу страницы
  Insert nick Quick quote
+Цитировать сообщение
post Oct 17 2017, 22:23:58
Post #3
BAN
RO till
Feb 24 2018, 11:16:59



13, 15 (IMG:style_emoticons/default/dwarf-1.gif)
Не хватает My Plague, Left Behind


Thanks:
(1) Aresson,
Вернуться к началу страницы
  Insert nick Quick quote
+Цитировать сообщение
post Dec 2 2017, 18:24:47
Post #4

rastapopoulos
**********
Group: Металариец
Posts: 1,480
Releases: 0
On Forums: 9 years 11 months
Thanks: 523 time(s)
Cameroon


In France they cal them "Slips Sales"
Вернуться к началу страницы
  Insert nick Quick quote
+Цитировать сообщение

ОтветитьСоздать новую тему
1 User(s) are reading this topic (1 Guests and 0 Anonymous Users)
0 Members:

 



- Lo-Fi Version Support form
Copyrights and abuse reports form
Time is now: 23rd February 2018 - 03:54:36