Welcome Guest ( Log In | Register )

> Astringency - Sanguinarium (2017), Progressive/Technical Melodic Death Metal
post Oct 18 2017, 23:41:06
Post #1

Аннигилятор пивА
Group Icon
Group: V.I.P
Posts: 47,314
Releases: 14244
From: Koenigsberg - TILZIT
On Forums: 12 years 1 month
Thanks: 315588 time(s)
Russian Federation


(IMG:https://metalarea.org/images/audiocovers/2017_Oct/acov_tid296370_thumb.jpg)

*Artist: Astringency
*Album: Sanguinarium
*Year: 2017
*Genre: Progressive/Technical Melodic Death Metal
*Country: United States (IMG:https://metalarea.org/forum/style_images/flags/United%20States.png)
*Format: mp3@CBR320kbps
*Size: 141MB

Tracklist:
01. Consummation 06:15
02. Emperors of the Black Cloth 05:35
03. The Prekarus 02:42
04. Of Adoration and Effervescence 06:52
05. Sanguine Departure 01:39
06. In Ethereal Sorrow 04:00
07. Elixir 04:12
08. Ravaging the Dell 03:40
09. Gates of Eternity 04:43
10. Sanctum of Serpents 06:32
11. Equanimity 18:45
******************************
Total playing time: 1:04:55



Extended info
Cameron Warren - Vocals
Aaron Prentice - Guitars
Jake Hackett - Guitars
Jordan Hackett - Drums
Caleb Sims - Bass



Technical info
(IMG:https://metalarea.org/images/spectrogram/2017_Oct/2bf7e69c238caa13d5296f8a248b8cae.png)
Input File: 03 The Prekarus.mp3
Channels : 2
Sample Rate : 44100
Precision : 16-bit
Duration : 00:02:42.74 = 7176614 samples = 12205.1 CDDA sectors
File Size : 6.59M
Bit Rate : 324k
Sample Encoding: MPEG audio (layer I, II or III)
Comments :
Title=The Prekarus
Artist=Astringency
Album=Sanguinarium
Tracknumber=3/11
Year=2017
Genre=9
Discnumber=1/1



Register


Go to the top of the page
  Insert nick Quick quote
+Quote Post
 
Start new topic
Replies (1 - 6)
post Oct 19 2017, 08:44:36
Post #2

Аннигилятор пивА
Group Icon
Group: V.I.P
Posts: 47,314
Releases: 14244
From: Koenigsberg - TILZIT
On Forums: 12 years 1 month
Thanks: 315588 time(s)
Russian Federation


без намека на модерн, а вот в чудесных соляках наличие неоклассики несомненно... ну и Чака мне кажется они любят

mirror
Register



на концерте секция с 4 минуты шикардосина (IMG:style_emoticons/default/pray.gif)


Go to the top of the page
  Insert nick Quick quote
+Quote Post
post Oct 22 2017, 04:47:07
Post #3

Ъ
**************
Group: Металариец
Posts: 9,090
Releases: 9
On Forums: 9 years 6 months
Thanks: 1726 time(s)
Sweden


Прослушал пол альбома, местами интересно но не более.
Go to the top of the page
  Insert nick Quick quote
+Quote Post
post Oct 30 2017, 15:36:35
Post #4

Schuldinerist
**************
Group: Металариец
Posts: 9,716
Releases: 33
From:
On Forums: 11 years 3 months
Thanks: 5850 time(s)
Russian Federation


Мелодика притягивает, техника превосходная, аранжировки вполне интересные.
Короче, альбом более, чем достоин внимания.
Заключительный 19 минутный инструментал близок к шедевральности..
9-/10


Thanks:
Go to the top of the page
  Insert nick Quick quote
+Quote Post
post Mar 14 2018, 09:50:47
Post #5

Аннигилятор пивА
Group Icon
Group: V.I.P
Posts: 47,314
Releases: 14244
From: Koenigsberg - TILZIT
On Forums: 12 years 1 month
Thanks: 315588 time(s)
Russian Federation


карелия
Register


Thanks:
(1) hammer,
Go to the top of the page
  Insert nick Quick quote
+Quote Post
post Mar 14 2018, 10:33:17
Post #6

И Ван Дамм По Делам Вашим!
**************
Group: Металариец
Posts: 15,779
Releases: 27
On Forums: 10 years 2 weeks
Thanks: 8361 time(s)
Honduras


Это просто праздник мелодики какой !Облога и вокал располагают к дичайшей рубке а на выходе имеем просто офигенно красивый техно дез.
Go to the top of the page
  Insert nick Quick quote
+Quote Post
post Mar 15 2018, 10:43:12
Post #7

Empty Words
***********
Group: Металариец
Posts: 1,876
Releases: 7
From: Москва
On Forums: 8 years 11 months
Thanks: 2149 time(s)
Russian Federation


Очень приятный technical death в стезе Obscura и Beyond Creation. В меру мелодично, куча соляков и вообще гитары здесь "отрываются" по полной. Если придираться, то можно сказать, что своего почерка у группы нет, а местами и вовсе слышатся прямые заимствования (?). Ну и чёрт бы с ним, слушать-то одно удовольствие. (IMG:style_emoticons/default/20.gif)

ЦИТАТА(hammer @ Mar 14 2018, 12:33:17) *
Облога и вокал располагают к дичайшей рубке а на выходе имеем просто офигенно красивый техно дез.
И да, облога совсем не в тему, топорная
Go to the top of the page
  Insert nick Quick quote
+Quote Post

Reply to this topicStart new topic
2 User(s) are reading this topic (2 Guests and 0 Anonymous Users)
0 Members:

 



- Lo-Fi Version Support form
Copyrights and abuse reports form
Time is now: 17th July 2018 - 07:08:57