Welcome Guest ( Log In | Register )

> И неформату есть предел.

Рэп/хип-хоп/шансон/поп удаляются. Для них есть свои порталы.

 
Reply to this topicStart new topic
> Мономан - Жизнь В Моно (2017), Stoner Rock
post Oct 19 2017, 12:54:21
Post #1

Group: Подсевший
Posts: 29
Releases: 0
On Forums: 5 years 6 months
Thanks: 8 time(s)
Russian Federation


(IMG:https://metalarea.org/images/audiocovers/2017_Oct/acov_tid296390_thumb.jpg)

*Artist: Мономан
*Album: Жизнь В Моно
*Year: 2017
*Genre: Stoner Rock
*Country: Russian Federation (IMG:https://metalarea.org/forum/style_images/flags/Russian%20Federation.png)
*Format: mp3@CBR320kbps
*Size: 96MB

Tracklist:
01. Привет (из Неолита)
02. Страх
03. Заживо Погребённый
04. Колыбельная
05. Дьявольский Сон
06. Я Устал
07. Могильный Рок
08. Игрушка
09. Прощай
******************************
Total playing time: 44:03



Extended info
Дебютный альбом провинциальных рокеров, сшитый из лоскутов нескольких жанров


Technical info
(IMG:https://metalarea.org/images/spectrogram/2017_Oct/d8a97289bde090a3b8204fa28abdbd2b.png)
Input File: 01 - Привет (Из Неолита).mp3
Channels : 2
Sample Rate : 44100
Precision : 16-bit
Duration : 00:03:52.54 = 10255058 samples = 17440.6 CDDA sectors
File Size : 9.31M
Bit Rate : 320k
Sample Encoding: MPEG audio (layer I, II or III)
Comments :
Title=Привет (Р?Р· Неолита)
Artist=Мономан
Album=Р–РёР·РЅСЊ Р’ РњРѕРЅРѕ
Tracknumber=1
Year=2017



Register


Thanks:
Go to the top of the page
  Insert nick Quick quote
+Quote Post

Reply to this topicStart new topic
1 User(s) are reading this topic (1 Guests and 0 Anonymous Users)
0 Members:

 



- Lo-Fi Version Support form
Copyrights and abuse reports form
Time is now: 12th December 2018 - 04:56:18