Welcome Guest ( Log In | Register )

> » неформату есть предел.

–эп/хип-хоп/шансон/поп удал€ютс€. ƒл€ них есть свои порталы.

 
ќтветить—оздать новую тему
> ћономан - ∆изнь ¬ ћоно (2017), Stoner Rock
post Oct 19 2017, 12:54:21
Post #1

Group: ѕодсевший
Posts: 29
Releases: 0
On Forums: 4 years 9 months
Thanks: 8 time(s)
Russian Federation


(IMG:https://metalarea.org/images/audiocovers/2017_Oct/acov_tid296390_thumb.jpg)

*Artist: ћономан
*Album: ∆изнь ¬ ћоно
*Year: 2017
*Genre: Stoner Rock
*Country: Russian Federation (IMG:https://metalarea.org/forum/style_images/flags/Russian%20Federation.png)
*Format: mp3@CBR320kbps
*Size: 96MB

Tracklist:
01. ѕривет (из Ќеолита)
02. —трах
03. «аживо ѕогребЄнный
04.  олыбельна€
05. ƒь€вольский —он
06. я ”стал
07. ћогильный –ок
08. »грушка
09. ѕрощай
******************************
Total playing time: 44:03



Extended info
ƒебютный альбом провинциальных рокеров, сшитый из лоскутов нескольких жанров


Technical info
(IMG:https://metalarea.org/images/spectrogram/2017_Oct/d8a97289bde090a3b8204fa28abdbd2b.png)
Input File: 01 - ѕривет (»з Ќеолита).mp3
Channels : 2
Sample Rate : 44100
Precision : 16-bit
Duration : 00:03:52.54 = 10255058 samples = 17440.6 CDDA sectors
File Size : 9.31M
Bit Rate : 320k
Sample Encoding: MPEG audio (layer I, II or III)
Comments :
Title=–Я—А–Є–≤–µ—В (–Ш–Ј –Э–µ–Њ–ї–Є—В–∞)
Artist=–Ь–Њ–љ–Њ–Љ–∞–љ
Album=–Ц–Є–Ј–љ—М –Т –Ь–Њ–љ–Њ
Tracknumber=1
Year=2017



Register


Thanks:
¬ернутьс€ к началу страницы
  Insert nick Quick quote
+÷итировать сообщение

ќтветить—оздать новую тему
1 User(s) are reading this topic (1 Guests and 0 Anonymous Users)
0 Members:

 



- Lo-Fi Version Support form
Copyrights and abuse reports form
Time is now: 23rd February 2018 - 03:56:11