Welcome Guest ( Log In | Register )

> И неформату есть предел.

Рэп/хип-хоп/шансон/поп удаляются. Для них есть свои порталы.

 
Reply to this topicStart new topic
> Sasha Monster - Red (2015), Art/Post Rock
post Oct 20 2017, 09:55:34
Post #1

Group: Подсевший
Posts: 39
Releases: 14
From: metalarea
On Forums: 10 years 8 months
Thanks: 196 time(s)
Slovenia


(IMG:http://metalarea.org/images/audiocovers/2017_Oct/acov_tid296443_thumb.jpg)

*Artist: Sasha Monster
*Album: Red
*Year: 2015
*Genre: Art/Post Rock
*Country: Russian Federation (IMG:http://metalarea.org/forum/style_images/flags/Russian%20Federation.png)
*Format: mp3@CBR320kbps
*Size: 72MB

Tracklist:
01 - In Red
02 - Bad News
03 - Deep Dive
04 - Radar
05 - Landscapes and Faces
06 - Slow Drill
07 - Pa Ka Q
08 - Majes
******************************
Total playing time: 31:42

Technical info
(IMG:http://metalarea.org/images/spectrogram/2017_Oct/357cd8adcaa91c0a87c39d2f0c5b496f.png)
Input File: 01 - Sasha Monster - In Red.mp3
Channels : 2
Sample Rate : 44100
Precision : 16-bit
Duration : 00:03:32.74 = 9382010 samples = 15955.8 CDDA sectors
File Size : 8.51M
Bit Rate : 320k
Sample Encoding: MPEG audio (layer I, II or III)
Comments :
Title=In Red
Artist=Sasha Monster
Album=Red
Tracknumber=1
Year=2015



Register
Go to the top of the page
  Insert nick Quick quote
+Quote Post

Reply to this topicStart new topic
1 User(s) are reading this topic (1 Guests and 0 Anonymous Users)
0 Members:

 



- Lo-Fi Version Support form
Copyrights and abuse reports form
Time is now: 12th December 2018 - 04:59:27