Welcome Guest ( Log In | Register )

> И неформату есть предел.

Рэп/хип-хоп/шансон/поп удаляются. Для них есть свои порталы.

> St. Monster - Three (2014), Post Metal/Post Rock
post Oct 20 2017, 10:03:50
Post #1

Group: Подсевший
Posts: 39
Releases: 14
From: metalarea
On Forums: 10 years 3 months
Thanks: 196 time(s)
Slovenia


(IMG:http://metalarea.org/images/audiocovers/2017_Oct/acov_tid296444_thumb.jpg)

*Artist: St. Monster
*Album: Three
*Year: 2014
*Genre: Post Metal/Post Rock
*Country: Russian Federation (IMG:http://metalarea.org/forum/style_images/flags/Russian%20Federation.png)
*Format: mp3@CBR320kbps
*Size: 65MB

Tracklist:
01 - Fragment
02 - Eclipse
03 - Languish
04 - War
05 - King of the Sands
06 - Dreaming
07 - Meth
08 - Electric Tears (Buckethead cover)
******************************
Total playing time: 29:21

Technical info
(IMG:http://metalarea.org/images/spectrogram/2017_Oct/b56a800b9a653fc534b36428eb33323e.png)
Input File: 07 - ST. MONSTER - Meth.mp3
Channels : 2
Sample Rate : 44100
Precision : 16-bit
Duration : 00:03:47.82 = 10046686 samples = 17086.2 CDDA sectors
File Size : 9.12M
Bit Rate : 320k
Sample Encoding: MPEG audio (layer I, II or III)
Comments :
Title=Meth
Artist=St. Monster
Album=Three
Tracknumber=7
Year=2012
Genre=Post Rock



Register


Thanks:
(1) ShmiT,
Go to the top of the page
  Insert nick Quick quote
+Quote Post
 
Start new topic
Replies (1 - 1)
post Oct 20 2017, 16:35:34
Post #2

TomheT
**************
Group: Металариец
Posts: 4,175
Releases: 75
From: Малоярославец
On Forums: 10 years 2 months
Thanks: 16417 time(s)
Russian Federation


..а вообще не плохо, инструментал + эмбиент
Go to the top of the page
  Insert nick Quick quote
+Quote Post

Reply to this topicStart new topic
1 User(s) are reading this topic (1 Guests and 0 Anonymous Users)
0 Members:

 



- Lo-Fi Version Support form
Copyrights and abuse reports form
Time is now: 20th June 2018 - 05:04:42