Welcome Guest ( Log In | Register )

> И неформату есть предел.

Рэп/хип-хоп/шансон/поп удаляются. Для них есть свои порталы.

 
Reply to this topicStart new topic
> Remerone - Сны (2015), Psychedelic Rock
post Oct 20 2017, 15:26:21
Post #1

Group: Подсевший
Posts: 39
Releases: 14
From: metalarea
On Forums: 10 years 3 months
Thanks: 196 time(s)
Slovenia


(IMG:http://metalarea.org/images/audiocovers/2017_Oct/acov_tid296458_thumb.jpg)

*Artist: Remerone
*Album: Сны
*Year: 2015
*Genre: Psychedelic Rock
*Country: Russian Federation (IMG:http://metalarea.org/forum/style_images/flags/Russian%20Federation.png)
*Format: mp3@CBR320kbps
*Size: 121MB

Tracklist:
1. Красный свет
2. Маленькая принцесса
3. Опыт
4. Никто не ждет
5. Надежда вера и любовь
6. Миллиган Билли
7. На ступени
8. Время не лечит
9. Сгораю
10. Супергерой
11. Не просто живу
12. Продолжение следует...
******************************
Total playing time: 53:49

Technical info
(IMG:http://metalarea.org/images/spectrogram/2017_Oct/9e4efe14df5562675fd885c5fc56ad89.png)
Input File: 01 - Remerone - Красный свет.mp3
Channels : 2
Sample Rate : 44100
Precision : 16-bit
Duration : 00:05:29.25 = 14519881 samples = 24693.7 CDDA sectors
File Size : 13.2M
Bit Rate : 320k
Sample Encoding: MPEG audio (layer I, II or III)
Comments :
Title=Красный Свет
Artist=Remerone
Album=РЎРЅС‹
Tracknumber=1
Year=2015
Genre=Psychodelic rock



Register


Thanks:
Go to the top of the page
  Insert nick Quick quote
+Quote Post

Reply to this topicStart new topic
1 User(s) are reading this topic (1 Guests and 0 Anonymous Users)
0 Members:

 



- Lo-Fi Version Support form
Copyrights and abuse reports form
Time is now: 20th June 2018 - 05:03:24