Welcome Guest ( Log In | Register )

> И неформату есть предел.

Рэп/хип-хоп/шансон/поп удаляются. Для них есть свои порталы.

 
ОтветитьСоздать новую тему
> Dulldog - Dance No More [ep] (2017), Grunge
post Oct 20 2017, 15:33:30
Post #1

Group: Подсевший
Posts: 39
Releases: 14
From: metalarea
On Forums: 9 years 11 months
Thanks: 196 time(s)
Slovenia


(IMG:http://metalarea.org/images/audiocovers/2017_Oct/acov_tid296459_thumb.jpg)

*Artist: Dulldog
*Album: Dance No More [ep]
*Year: 2017
*Genre: Grunge
*Country: Russian Federation (IMG:http://metalarea.org/forum/style_images/flags/Russian%20Federation.png)
*Format: mp3@CBR320kbps
*Size: 54MB

Tracklist:
1. Wolf Sinne
2. Dance No More
3. Bold Little Dwarf
4. Oh Like
5. The King Of Russia (Instrumental)
6. Oh Like (Instrumental)
7. Bold Little Dwarf (Instrumental)
******************************
Total playing time: 23:28

Technical info
(IMG:http://metalarea.org/images/spectrogram/2017_Oct/71c4a9c30c6810c81002503492cbda93.png)
Input File: 01 - Wolf Sinne.mp3
Channels : 2
Sample Rate : 44100
Precision : 16-bit
Duration : 00:03:18.74 = 8764522 samples = 14905.6 CDDA sectors
File Size : 7.95M
Bit Rate : 320k
Sample Encoding: MPEG audio (layer I, II or III)
Comments :
Title=Wolf Sinne
Artist=Dulldog
Album=Dance No More
Tracknumber=1
Year=2017
Genre=20



Register


Thanks:
Вернуться к началу страницы
  Insert nick Quick quote
+Цитировать сообщение

ОтветитьСоздать новую тему
1 User(s) are reading this topic (1 Guests and 0 Anonymous Users)
0 Members:

 



- Lo-Fi Version Support form
Copyrights and abuse reports form
Time is now: 23rd February 2018 - 03:57:25