Welcome Guest ( Log In | Register )

> И неформату есть предел.

Рэп/хип-хоп/шансон/поп удаляются. Для них есть свои порталы.

> Vanity - Occult You (2013), Shoegaze/Post-Punk
post Oct 26 2017, 16:19:33
Post #1

Семь Литров
*******
Group: Металариец
Posts: 709
Releases: 40
On Forums: 4 years 11 months
Thanks: 1198 time(s)
Unknown


(IMG:http://metalarea.org/images/audiocovers/2017_Oct/acov_tid296732_thumb.jpg)

*Artist: Vanity
*Album: Occult You
*Year: 2013
*Genre: Shoegaze/Post-Punk
*Country: Italy (IMG:http://metalarea.org/forum/style_images/flags/Italy.png)
*Format: mp3@CBR320kbps
*Size: 91MB

Tracklist:
01. Sleeping Tears 4:32
02. Under Black Ice 4:12
03. Ghosts 3:32
04. Ruins 4:22
05. Pagan Hearts 3:38
06. Sun 3:56
07. Time's New Romance 4:13
08. Limbo 1:30
09. Occult You 4:49
10. The Wanderer 5:06
******************************
Total playing time: 39:50



Technical info
(IMG:http://metalarea.org/images/spectrogram/2017_Oct/21ae0803026c6c9be3c6eaa533861707.png)
Input File: 05 - Vanity - Pagan Hearts.mp3
Channels : 2
Sample Rate : 44100
Precision : 16-bit
Duration : 00:03:38.48 = 9635056 samples = 16386.1 CDDA sectors
File Size : 8.74M
Bit Rate : 320k
Sample Encoding: MPEG audio (layer I, II or III)
Comments :
Title=Pagan Hearts
Artist=Vanity
Album=Occult You
Tracknumber=5
Year=2013
Genre=Metal



Register


Go to the top of the page
  Insert nick Quick quote
+Quote Post
 
Start new topic
Replies (1 - 1)
post Oct 26 2017, 18:40:38
Post #2

Ёлд ХеллоВяйне
Group Icon
Group: V.I.P
Posts: 25,988
Releases: 130
From: Питер
On Forums: 11 years 10 months
Thanks: 14369 time(s)
Russian Federation




Thanks:
(1) ShmiT,
Go to the top of the page
  Insert nick Quick quote
+Quote Post

Reply to this topicStart new topic
1 User(s) are reading this topic (1 Guests and 0 Anonymous Users)
0 Members:

 



- Lo-Fi Version Support form
Copyrights and abuse reports form
Time is now: 19th September 2018 - 14:57:11