Welcome Guest ( Log In | Register )

> И неформату есть предел.

Рэп/хип-хоп/шансон/поп удаляются. Для них есть свои порталы.

> Glittertind - Himmelfall (2017), Viking/Folk Rock (D)
post Oct 26 2017, 17:01:34
Post #1

Аннигилятор пивА
Group Icon
Group: V.I.P
Posts: 50,761
Releases: 15819
From: Koenigsberg - TILZIT
On Forums: 12 years 6 months
Thanks: 345043 time(s)
Russian Federation


(IMG:https://metalarea.org/images/audiocovers/2017_Oct/acov_tid296737_thumb.jpg)

*Artist: Glittertind
*Album: Himmelfall
*Year: 2017
*Genre: Viking/Folk Rock
*Country: Norway (IMG:https://metalarea.org/forum/style_images/flags/Norway.png)
*Format: mp3@CBR320kbps
*Size: 93MB

Tracklist:
01. Olav Engelbrektsson 04:56
02. Etter stormen 04:29
03. Likvake 04:22
04. Finst ikkje meir 03:52
05. Himmelfall 02:02
06. I djupet lokkar ein eld 04:09
07. Forføraren 03:52
08. Tvilar på alt 03:54
09. Ein feste Burg ist unser Gott 03:23
10. Utferd 03:59
******************************
Total playing time: 38:58



Extended info
Torbjørn Sandvik - Vocals, Guitars, Bass, Drums, Keyboards (2001-present)
Geirmund Simonsen - Guitars, Bass, Drums, Accordion, Organs, Vocals, Programming (2008-present)
Bjørn Nordstoga - Bass (2010-present)
Geir Holm Drums (2010-present)
Stefan Theofilakis - Flute, Vocals (2010-present)
Olav Aasbø - Guitars, Vocals (2010-present)
Guest:
Eivind Nordset Lønning - Trumpet
Ingrid Mæland - Violin
Petter Richter - Lute, Guitars
Eivind Almhjell - Guitars, Guitars (acoustic)


Technical info
(IMG:https://metalarea.org/images/spectrogram/2017_Oct/32f5e97a2732d306adac763488fcf934.png)
Input File: 2 Etter stormen.mp3
Channels : 2
Sample Rate : 44100
Precision : 16-bit
Duration : 00:04:29.50 = 11885126 samples = 20212.8 CDDA sectors
File Size : 11.1M
Bit Rate : 330k
Sample Encoding: MPEG audio (layer I, II or III)
Comments :
Title=Etter stormen
Artist=Glittertind
Album=Himmelfall
Tracknumber=2/10
Year=2017
Discnumber=1/1



Register


Go to the top of the page
  Insert nick Quick quote
+Quote Post
 
Start new topic
Replies (1 - 2)
post Feb 13 2018, 22:31:41
Post #2

Девять Литров
*********
Group: Металариец
Posts: 918
Releases: 0
On Forums: 11 years 6 months
Thanks: 59 time(s)
Netherlands


lossless? (IMG:style_emoticons/default/9.gif)
Go to the top of the page
  Insert nick Quick quote
+Quote Post
post Feb 14 2018, 00:14:49
Post #3

HV/DC
******
Group: Металариец
Posts: 553
Releases: 0
From: Эрлангенск
On Forums: 11 years 10 months
Thanks: 117 time(s)
Germany


помню дебютник зачётный был, особенно пейсня норвежских партизан - красно сине белый... чую сейчас будет соплежуйство, судя по тому что происходило после этого
Go to the top of the page
  Insert nick Quick quote
+Quote Post

Reply to this topicStart new topic
1 User(s) are reading this topic (1 Guests and 0 Anonymous Users)
0 Members:

 



- Lo-Fi Version Support form
Copyrights and abuse reports form
Time is now: 12th December 2018 - 04:35:30