Welcome Guest ( Log In | Register )

> Infernal Coil - Burning Prayer Of Infinite Hatred [ep] (2016), Black/Death Metal/Grindcore
post Oct 26 2017, 17:30:52
Post #1

Маньяк
**********
Group: Металариец
Posts: 1,419
Releases: 1207
From: Одесса
On Forums: 10 years 4 months
Thanks: 9416 time(s)
Ukraine


(IMG:http://metalarea.org/images/audiocovers/2017_Oct/acov_tid296740_thumb.jpg)

*Artist: Infernal Coil
*Album: Burning Prayer Of Infinite Hatred [ep]
*Year: 2016
*Genre: Black/Death Metal/Grindcore
*Country: United States (IMG:http://metalarea.org/forum/style_images/flags/United%20States.png)
*Format: mp3@CBR320kbps
*Size: 32MB

Tracklist:
1. True Nature 03:31
2. Blood of My Blood 03:27
3. Our Punishment 04:26
4. Down-Going In Shadow 02:45
******************************
Total playing time: 14:09



Extended info
Line - up:

Blake Connally - Guitars, Vocals (Dead in the Dirt)

(IMG:https://www.metal-archives.com/images/3/5/4/0/3540413609_photo.jpg?2133)


Technical info
(IMG:http://metalarea.org/images/spectrogram/2017_Oct/1916a733a9e968849573f5436cb78692.png)
Input File: 02. Blood Of My Blood.mp3
Channels : 2
Sample Rate : 48000
Precision : 16-bit
Duration : 00:03:13.42 = 9284112 samples ~ 14506.4 CDDA sectors
File Size : 7.74M
Bit Rate : 320k
Sample Encoding: MPEG audio (layer I, II or III)
Comments :
Title=Blood Of My Blood
Artist=Infernal Coil
Album=Burning Prayer of Infinite Hatred (EP)
Tracknumber=2
Year=2016
Genre=Black / Death Metal / Grindcore



Register


Go to the top of the page
  Insert nick Quick quote
+Quote Post
 
Start new topic
Replies (1 - 2)
post Sep 18 2018, 20:12:26
Post #2

I Like It Raw
***********
Group: Металариец
Posts: 1,931
Releases: 15
On Forums: 12 years 2 days
Thanks: 1063 time(s)
Russian Federation


re-upload pls)
Go to the top of the page
  Insert nick Quick quote
+Quote Post
post Oct 11 2018, 10:44:00
Post #3

Маньяк
**********
Group: Металариец
Posts: 1,469
Releases: 0
From: MoscoW
On Forums: 11 years 10 months
Thanks: 1167 time(s)
Russian Federation


Залито на Yadi.sk - 31.2Mb в 320kbps:
Register

(IMG:style_emoticons/default/metaler.gif)
Go to the top of the page
  Insert nick Quick quote
+Quote Post

Reply to this topicStart new topic
1 User(s) are reading this topic (1 Guests and 0 Anonymous Users)
0 Members:

 



- Lo-Fi Version Support form
Copyrights and abuse reports form
Time is now: 23rd October 2018 - 18:17:03