Welcome Guest ( Log In | Register )

> И неформату есть предел.

Рэп/хип-хоп/шансон/поп удаляются. Для них есть свои порталы.

> The Grey Wolves - Exit Strategy (2017), Industrial/Dark Ambient
post Oct 26 2017, 17:52:11
Post #1

As Above, so Below
***********
Group: Металариец
Posts: 1,862
Releases: 17
On Forums: 9 years 1 week
Thanks: 3695 time(s)
Russian Federation


(IMG:http://metalarea.org/images/audiocovers/2017_Oct/acov_tid296742_thumb.jpg)

*Artist: The Grey Wolves
*Album: Exit Strategy
*Year: 2017
*Genre: Industrial/Dark Ambient
*Country: United Kingdom (IMG:http://metalarea.org/forum/style_images/flags/United%20Kingdom.png)
*Format: mp3@CBR320kbps
*Size: 94MB

Tracklist:
1. In our Time 05:53
2. Lockdown 02:59
3. The Precinct 04:24
4. A Place of Grief 03:48
5. In Too Deep 04:55
6. Harmful Intent 03:34
7. Seizure 04:30
8. Terminal 06:41
9. Flatline 04:40
******************************
Total playing time: 41:24



Extended info
По заверениям лейбла, "Exit Strategy" - финальный альбом в дискографии The Grey Wolves.
Альбом оформлен, спродюссирован и смикширован Jérôme Nougaillon (Propergol).
Издание Tesco Organisation.


Technical info
(IMG:http://metalarea.org/images/spectrogram/2017_Oct/4342df1f4a438ab78dbdfdaad6a37b87.png)
Input File: 01 - The Grey Wolves - In Our Time.mp3
Channels : 2
Sample Rate : 44100
Precision : 16-bit
Duration : 00:05:53.45 = 15586969 samples = 26508.5 CDDA sectors
File Size : 14.2M
Bit Rate : 321k
Sample Encoding: MPEG audio (layer I, II or III)
Comments :
Title=In Our Time
Artist=The Grey Wolves
Album=Exit Strategy
Tracknumber=01
Year=2017
Genre=Industrial, Power Electronics



Register


Go to the top of the page
  Insert nick Quick quote
+Quote Post
 
Start new topic
Replies (1 - 2)
post Oct 26 2017, 18:22:24
Post #2

As Above, so Below
***********
Group: Металариец
Posts: 1,862
Releases: 17
On Forums: 9 years 1 week
Thanks: 3695 time(s)
Russian Federation


Register
Go to the top of the page
  Insert nick Quick quote
+Quote Post
post Dec 11 2017, 21:53:46
Post #3

стазис эпидерсис
**************
Group: Металариец
Posts: 2,227
Releases: 0
On Forums: 2 years 10 months
Thanks: 1339 time(s)
Unknown


идеальное сочетание мозговыносящих звуков
в наушниках стопроцентное откладывание кирпичей обеспечено
Go to the top of the page
  Insert nick Quick quote
+Quote Post

Reply to this topicStart new topic
1 User(s) are reading this topic (1 Guests and 0 Anonymous Users)
0 Members:

 



- Lo-Fi Version Support form
Copyrights and abuse reports form
Time is now: 12th December 2018 - 03:34:07