Welcome Guest ( Log In | Register )

> И неформату есть предел.

Рэп/хип-хоп/шансон/поп удаляются. Для них есть свои порталы.

> Michael Idehall - Machine Spirit Transmission (2017), Industrial/Experimental
post Oct 26 2017, 18:00:33
Post #1

As Above, so Below
***********
Group: Металариец
Posts: 1,854
Releases: 17
On Forums: 8 years 2 months
Thanks: 3627 time(s)
Russian Federation


(IMG:http://metalarea.org/images/audiocovers/2017_Oct/acov_tid296744_thumb.jpg)

*Artist: Michael Idehall
*Album: Machine Spirit Transmission
*Year: 2017
*Genre: Industrial/Experimental
*Country: Sweden (IMG:http://metalarea.org/forum/style_images/flags/Sweden.png)
*Format: mp3@CBR320kbps
*Size: 108MB

Tracklist:
1. Opening 02:44
2. Ma Kra Oum Ka Bra Nha 05:26
3. Power Mantra 04:42
4. Dream Circuitry 03:29
5. The Singing Of Machines 04:16
6. Technological Automatism 03:50
7. Aukos 05:46
8. Prophecy Of the Apparatus God 17:43
******************************
Total playing time: 47:56



Technical info
(IMG:http://metalarea.org/images/spectrogram/2017_Oct/6d0716336d26bf7bc697405a997e12f3.png)
Input File: 01 - Michael Idehall – Opening.mp3
Channels : 2
Sample Rate : 44100
Precision : 16-bit
Duration : 00:02:45.03 = 7277955 samples = 12377.5 CDDA sectors
File Size : 6.64M
Bit Rate : 322k
Sample Encoding: MPEG audio (layer I, II or III)
Comments :
Title=Opening
Artist=Michael Idehall
Album=Machine Spirit Transmission
Tracknumber=1/8
Year=2017



Register


Thanks:
Вернуться к началу страницы
  Insert nick Quick quote
+Цитировать сообщение
 
Создать новую тему
Replies (1 - 1)
post Oct 26 2017, 18:21:35
Post #2

As Above, so Below
***********
Group: Металариец
Posts: 1,854
Releases: 17
On Forums: 8 years 2 months
Thanks: 3627 time(s)
Russian Federation


Register
Вернуться к началу страницы
  Insert nick Quick quote
+Цитировать сообщение

ОтветитьСоздать новую тему
1 User(s) are reading this topic (1 Guests and 0 Anonymous Users)
0 Members:

 



- Lo-Fi Version Support form
Copyrights and abuse reports form
Time is now: 23rd February 2018 - 03:58:04