Welcome Guest ( Log In | Register )

> И неформату есть предел.

Рэп/хип-хоп/шансон/поп удаляются. Для них есть свои порталы.

> Grunt & Bizarre Uproar & Deathkey & Caligula031 - Beyond [split] (2017), Power Electronics/Noise | Noise | Noise/Power Electronics | Noise
post Oct 27 2017, 11:06:41
Post #1

As Above, so Below
***********
Group: Металариец
Posts: 1,855
Releases: 17
On Forums: 8 years 2 months
Thanks: 3629 time(s)
Russian Federation


(IMG:http://metalarea.org/images/audiocovers/2017_Oct/acov_tid296774_thumb.jpg)

*Artist: Grunt & Bizarre Uproar & Deathkey & Caligula031
*Album: Beyond [split]
*Year: 2017
*Genre: Power Electronics/Noise | Noise | Noise/Power Electronics | Noise
*Country: Finland (IMG:http://metalarea.org/forum/style_images/flags/Finland.png) | Finland (IMG:http://metalarea.org/forum/style_images/flags/Finland.png) | United States (IMG:http://metalarea.org/forum/style_images/flags/United%20States.png) | Switzerland (IMG:http://metalarea.org/forum/style_images/flags/Switzerland.png)
*Format: mp3@CBR320kbps
*Size: 80MB

Tracklist:
1. Grunt - Our Faith 08:00
2. Bizarre Uproar - Hate Your Face 10:20
3. Deathkey - Psiborg Blood Conduit / Hammering Deatharm Of Swastika 07:18
4. Caligula031 - Untitled 09:34
******************************
Total playing time: 35:02

(IMG:http://metalarea.org/images/youtube.png)
(IMG:http://metalarea.org/images/youtube.png)

Technical info
(IMG:http://metalarea.org/images/spectrogram/2017_Oct/15efdcafdeaa50367dd11ba87fec77ae.png)
Input File: 03 - Deathkey - Psiborg Blood Conduit Hammering Deatharm Of Swastika.mp3
Channels : 2
Sample Rate : 44100
Precision : 16-bit
Duration : 00:07:18.00 = 19315800 samples = 32850 CDDA sectors
File Size : 17.5M
Bit Rate : 320k
Sample Encoding: MPEG audio (layer I, II or III)
Comments :
Title=Psiborg Blood Conduit / Hammering Deatharm Of Swastika
Artist=Deathkey
Album=Beyond
Tracknumber=3
Year=2017
Genre=Power Electronics



Register


Вернуться к началу страницы
  Insert nick Quick quote
+Цитировать сообщение
 
Создать новую тему
Replies (1 - 2)
post Nov 28 2017, 22:21:32
Post #2

Два Литра
**
Group: Завсегдатай
Posts: 125
Releases: 0
On Forums: 10 years 3 months
Thanks: 36 time(s)
Ukraine


А можно зеркало сделать?
Вернуться к началу страницы
  Insert nick Quick quote
+Цитировать сообщение
post Nov 29 2017, 16:03:14
Post #3

As Above, so Below
***********
Group: Металариец
Posts: 1,855
Releases: 17
On Forums: 8 years 2 months
Thanks: 3629 time(s)
Russian Federation


Register
Вернуться к началу страницы
  Insert nick Quick quote
+Цитировать сообщение

ОтветитьСоздать новую тему
1 User(s) are reading this topic (1 Guests and 0 Anonymous Users)
0 Members:

 



- Lo-Fi Version Support form
Copyrights and abuse reports form
Time is now: 24th February 2018 - 05:29:50