Welcome Guest ( Log In | Register )

> 

Здесь релизы с живыми прямыми ссылками на lossless

> Hyrgal - Serpentine (2017), Black Metal
post Oct 27 2017, 13:26:05
Post #1

Serial Uploader
Group Icon
Group: V.I.P
Posts: 33,153
Releases: 31437
From: Lithuania
On Forums: 10 years 4 months
Thanks: 359386 time(s)
Lithuania


(IMG:https://metalarea.org/images/audiocovers/2017_Oct/acov_tid296784_thumb.jpg)

*Artist: Hyrgal
*Album: Serpentine
*Year: 2017
*Genre: Black Metal
*Country: France (IMG:https://metalarea.org/forum/style_images/flags/France.png)
*Format: mp3@CBR320kbps
*Size: 84MB

Tracklist:
01. L'Appel
02. Mouroir
03. Till
04. Représailles
05. Aux diktats de l'instinct
06. Rite
07. Etrusca disciplina
******************************
Total playing time: 36:31

(IMG:https://metalarea.org/images/myspace.png)




Technical info
(IMG:https://metalarea.org/images/spectrogram/2017_Oct/4a1ee850f46f4cc717a9510d16f2e6c3.png)
Input File: 02. Mouroir.mp3
Channels : 2
Sample Rate : 44100
Precision : 16-bit
Duration : 00:06:08.16 = 16235944 samples = 27612.1 CDDA sectors
File Size : 14.8M
Bit Rate : 322k
Sample Encoding: MPEG audio (layer I, II or III)
Comments :
Title=Mouroir
Artist=Hyrgal
Album=Serpentine
Tracknumber=2/7
Year=2017



Register


Go to the top of the page
  Insert nick Quick quote
+Quote Post
 
Start new topic
Replies (1 - 5)
post Oct 27 2017, 16:53:25
Post #2

Аннигилятор пивА
Group Icon
Group: V.I.P
Posts: 49,576
Releases: 15329
From: Koenigsberg - TILZIT
On Forums: 12 years 4 months
Thanks: 334190 time(s)
Russian Federation


83mb/320
Register


Go to the top of the page
  Insert nick Quick quote
+Quote Post
inatas_eva_89
post Oct 28 2017, 16:52:45
Post #3

Guests team






Отличный альбом, интересные гармонии, летящие бласты, философская атмосфера


Thanks:
Go to the top of the page
  Insert nick Quick quote
+Quote Post
post Oct 11 2018, 22:03:32
Post #4

Три Литра
***
Group: Завсегдатай
Posts: 253
Releases: 0
On Forums: 5 years 2 months
Thanks: 147 time(s)
Monaco


re-up please
Go to the top of the page
  Insert nick Quick quote
+Quote Post
post Oct 13 2018, 19:41:54
Post #5

Правь статус, ####!111
**************
Group: Металариец
Posts: 2,684
Releases: 0
From: Одесса
On Forums: 10 years 7 months
Thanks: 1070 time(s)
Ukraine


yes anyopne reup 320 please?


Thanks:
(1) biroutios,
Go to the top of the page
  Insert nick Quick quote
+Quote Post
post Oct 13 2018, 19:52:31
Post #6

...
Group Icon
Group: S-moderation team
Posts: 7,268
Releases: 1288
On Forums: 7 years 7 months
Thanks: 35469 time(s)
Croatia


Register


Go to the top of the page
  Insert nick Quick quote
+Quote Post

Reply to this topicStart new topic
2 User(s) are reading this topic (2 Guests and 0 Anonymous Users)
0 Members:

 



- Lo-Fi Version Support form
Copyrights and abuse reports form
Time is now: 23rd October 2018 - 17:07:01