Welcome Guest ( Log In | Register )

> И неформату есть предел.

Рэп/хип-хоп/шансон/поп удаляются. Для них есть свои порталы.

> Vrasësinerëzve & Black Wilderness - Untitled [split] (2016), Dark Ambient | Dark Ambient
post Oct 27 2017, 22:46:01
Post #1

Правь статус, ####!111
**************
Group: Металариец
Posts: 3,017
Releases: 471
From: Brazil
On Forums: 6 years 3 weeks
Thanks: 20347 time(s)
Brazil


(IMG:https://metalarea.org/images/audiocovers/2017_Oct/acov_tid296822_thumb.jpg)

*Artist: Vrasësinerëzve & Black Wilderness
*Album: Untitled [split]
*Year: 2016
*Genre: Dark Ambient | Dark Ambient
*Country: Bosnia and Herzegovina (IMG:https://metalarea.org/forum/style_images/flags/Bosnia%20and%20Herzegovina.png) | United States (IMG:https://metalarea.org/forum/style_images/flags/United%20States.png)
*Format: mp3@CBR320kbps
*Size: 67MB

Tracklist:
Black Wilderness:
A1. Untitled
A2. Translucent Shadows of the Devil Within / My Predatory Infatuation Will Never Rest
Vrasësinerëzve:
B1. Untitled
B2. Collecting the Damned Souls from Burial Ground / My Inhuman Hunger Will Grow Through the Night
******************************
Total playing time: 28:53



Extended info
Nebular Carcoma Records ‎– MOSS 014

Pro-cassette tape limited to 33 hand-numbered copies.


Technical info
(IMG:https://metalarea.org/images/spectrogram/2017_Oct/f8103f06ddbfbbe2ace7098954d0baee.png)
Input File: 03 - Vrasësinerëzve - Untitled.mp3
Channels : 2
Sample Rate : 44100
Precision : 16-bit
Duration : 00:07:04.71 = 18729799 samples = 31853.4 CDDA sectors
File Size : 17.0M
Bit Rate : 320k
Sample Encoding: MPEG audio (layer I, II or III)
Comments :
Title=Untitled
Artist=VrasГ«sinerГ«zve
Album=Untitled
Tracknumber=3
Year=2016
Genre=Dark Ambient



Register


Вернуться к началу страницы
  Insert nick Quick quote
+Цитировать сообщение
 
Создать новую тему
Replies (1 - 1)
post Oct 28 2017, 11:57:25
Post #2

Девять Литров
*********
Group: Металариец
Posts: 934
Releases: 37
From: великий город Питер
On Forums: 12 years 2 months
Thanks: 1756 time(s)
Russian Federation


штатники решили закосить под LLN что ли? (IMG:style_emoticons/default/smile1.gif) )
Вернуться к началу страницы
  Insert nick Quick quote
+Цитировать сообщение

ОтветитьСоздать новую тему
1 User(s) are reading this topic (1 Guests and 0 Anonymous Users)
0 Members:

 



- Lo-Fi Version Support form
Copyrights and abuse reports form
Time is now: 23rd February 2018 - 03:55:15