Welcome Guest ( Log In | Register )

> И неформату есть предел.

Рэп/хип-хоп/шансон/поп удаляются. Для них есть свои порталы.

> Arktau Eos - Catacomb Resonator (2017), Ritual Dark/Drone Ambient (D6)
post Oct 27 2017, 23:29:53
Post #1

ashes of yesterdays
**********
Group: Металариец
Posts: 1,056
Releases: 8
On Forums: 10 years 11 months
Thanks: 2641 time(s)
Unknown


(IMG:http://metalarea.org/images/audiocovers/2017_Oct/acov_tid296824_thumb.jpg)

*Artist: Arktau Eos
*Album: Catacomb Resonator
*Year: 2017
*Genre: Ritual Dark/Drone Ambient
*Country: Finland (IMG:http://metalarea.org/forum/style_images/flags/Finland.png)
*Format: mp3@CBR320kbps
*Size: 70MB

Tracklist:
1. Catacomb Resonator 37:15
******************************
Total playing time: 37:15

Technical info
(IMG:http://metalarea.org/images/spectrogram/2017_Oct/4c6c047a13139bb522517ac6525df282.png)
Input File: Arktau Eos - Catacomb Resonator.mp3
Channels : 2
Sample Rate : 44100
Precision : 16-bit
Duration : 00:37:12.00 = 98431200 samples = 167400 CDDA sectors
File Size : 89.2M
Bit Rate : 320k
Sample Encoding: MPEG audio (layer I, II or III)
Comments :
Title=Catacomb Resonator
Artist=Arktau Eos
Album=Catacomb Resonator
Tracknumber=1
Year=2017
Genre=26



Register


Go to the top of the page
  Insert nick Quick quote
+Quote Post
 
Start new topic
Replies (1 - 3)
post Oct 28 2017, 09:44:03
Post #2

стазис эпидерсис
***********
Group: Металариец
Posts: 1,790
Releases: 0
On Forums: 2 years 4 months
Thanks: 1097 time(s)
Unknown


мимо, не впечатлило совсем, слишком монотонно.
могут же поинтересней.
Go to the top of the page
  Insert nick Quick quote
+Quote Post
post Oct 28 2017, 09:49:14
Post #3

As Above, so Below
***********
Group: Металариец
Posts: 1,859
Releases: 17
On Forums: 8 years 6 months
Thanks: 3675 time(s)
Russian Federation


Отстранённый, минималистичный, сотканный практически только из одного голоса альбом.
В список потенциальных приобретений на будущее внёс, но соглашусь, что AE могут быть и поинтереснее.
Go to the top of the page
  Insert nick Quick quote
+Quote Post
post Feb 21 2018, 09:34:08
Post #4

Правь статус, ####!111
**************
Group: Металариец
Posts: 2,459
Releases: 12
On Forums: 10 years 10 months
Thanks: 1366 time(s)
Russian Federation


Самый скуный, если это слово вообще уместно для амбиентов, альбом. Учитывая, что практически всю дискографию имею на физических носителях, покупать это не вознкло желания. Тот же крайний салокрымнаш (Хало Манаш) в разы интересней
Go to the top of the page
  Insert nick Quick quote
+Quote Post

Reply to this topicStart new topic
1 User(s) are reading this topic (1 Guests and 0 Anonymous Users)
0 Members:

 



- Lo-Fi Version Support form
Copyrights and abuse reports form
Time is now: 20th June 2018 - 20:03:46