Welcome Guest ( Log In | Register )

> И неформату есть предел.

Рэп/хип-хоп/шансон/поп удаляются. Для них есть свои порталы.

> Benjamin Clementine - I Tell A Fly (2017), Avant-garde, Barocco, Jazz, Soul
post Oct 28 2017, 17:05:07
Post #1

стазис эпидерсис
**************
Group: Металариец
Posts: 2,244
Releases: 0
On Forums: 2 years 10 months
Thanks: 1348 time(s)
Unknown


(IMG:https://metalarea.org/images/audiocovers/2017_Oct/acov_tid296871_thumb.jpg)

*Artist: Benjamin Clementine
*Album: I Tell A Fly
*Year: 2017
*Genre: Avant-garde, Barocco, Jazz, Soul
*Country: United Kingdom (IMG:https://metalarea.org/forum/style_images/flags/United%20Kingdom.png)
*Format: mp3@CBR320kbps
*Size: 105MB

Tracklist:
01 - Farewell Sonata 4:35
02 - God Save The Jungle 3:14
03 - Better Sorry Than Asafe
04 - Phantom Of Aleppoville 6:30
05 - Paris Cor Blimey 4:23
06 - Jupiter 2:41
07 - Ode From Joyce 2:05
08 - One Awkward Fish 4:13
09 - By The Ports Of Europe 3:40
10 - Quintessence 3:37
11 - Ave Dreamer 4:28
******************************
Total playing time: 39:26





Technical info
(IMG:https://metalarea.org/images/spectrogram/2017_Oct/61829a6d6ce679167ed8316d11390b87.png)
Input File: 06. Jupiter.mp3
Channels : 2
Sample Rate : 44100
Precision : 16-bit
Duration : 00:02:41.46 = 7120166 samples = 12109.1 CDDA sectors
File Size : 6.46M
Bit Rate : 320k
Sample Encoding: MPEG audio (layer I, II or III)
Comments :
Title=Jupiter
Artist=Benjamin Clementine
Album=I Tell A Fly
Tracknumber=6
Year=2017
Genre=Soul, Jazz, Chamber Pop, Singer-Songwriter



Register


Go to the top of the page
  Insert nick Quick quote
+Quote Post
 
Start new topic
Replies (1 - 5)
post Oct 31 2017, 10:07:33
Post #2

Восемь Литров
********
Group: Металариец
Posts: 898
Releases: 0
From: Харьков
On Forums: 9 years 2 months
Thanks: 273 time(s)
Ukraine


Отличный альбом, гораздо менее мейнстримовый, чем предыдущий. Phantom of Aleppoville особенно хороша.


Thanks:
Go to the top of the page
  Insert nick Quick quote
+Quote Post
post Oct 31 2017, 10:59:30
Post #3

стазис эпидерсис
**************
Group: Металариец
Posts: 2,244
Releases: 0
On Forums: 2 years 10 months
Thanks: 1348 time(s)
Unknown


ЦИТАТА(Ghostb @ 31st October 2017 - 14:07:33) *
Отличный альбом, гораздо менее мейнстримовый, чем предыдущий.

Читал отзывы на разных ресурсах, " ну ничего так, да ну что наркоманская хрень, не то что прошлый"
Забавно наблюдать, как у писавших сие в головах недоуменные хомячки мечутся.
А Бенджамин просто перешагнул грань обыденного, только и всего, порвал шаблоны.
Уважение талантливому музыканту, одаренной личности и бывалому человеку.


Thanks:
(2) Ghostb, kasart,
Go to the top of the page
  Insert nick Quick quote
+Quote Post
post Nov 4 2017, 18:53:21
Post #4

21st Century Schizoid Man
**************
Group: Металариец
Posts: 5,495
Releases: 67
From: Moscow
On Forums: 10 years 7 months
Thanks: 4247 time(s)
Russian Federation


Для тех, кто открыт к другим жанрам музыки (кроме металла), творчество Бенджамина - это маст-хэв по-любому. Его музыка настолько выламывается из любых рамок, хотя по сути все её компоненты легко определимы - классическая (европейская) школа фортепиано и африканские вокальные мотивы. Да и металхэдам полезно такое слушать, чтобы мозги не костенели.


Thanks:
Go to the top of the page
  Insert nick Quick quote
+Quote Post
post Nov 4 2017, 22:46:12
Post #5

Попсовик от брутала
**************
Group: Металариец
Posts: 6,403
Releases: 61
From: Минск
On Forums: 10 years 1 week
Thanks: 5302 time(s)
Belarus


Необычно мыслит.
Go to the top of the page
  Insert nick Quick quote
+Quote Post
post Jan 14 2018, 19:13:56
Post #6

Group: Подсевший
Posts: 30
Releases: 0
From: таганрог
On Forums: 10 years 2 days
Thanks: 6 time(s)
Russian Federation


Думаю, не надо проходить мимо! Отличное открытие для меня. Красивая музыка (IMG:style_emoticons/default/20.gif)
Go to the top of the page
  Insert nick Quick quote
+Quote Post

Reply to this topicStart new topic
1 User(s) are reading this topic (1 Guests and 0 Anonymous Users)
0 Members:

 



- Lo-Fi Version Support form
Copyrights and abuse reports form
Time is now: 14th December 2018 - 20:13:41