Welcome Guest ( Log In | Register )

> Dissolving Of Prodigy & Bigotry - Lamentations Of Innocents/Step To The Grave [best of/compilation] (2017), Doom/Death Metal
post Oct 29 2017, 13:43:30
Post #1

...
**************
Group: Металариец
Posts: 3,221
Releases: 1353
From: МЕЩЁРА
On Forums: 10 years 3 months
Thanks: 38853 time(s)
Russian Federation


(IMG:http://metalarea.org/images/audiocovers/2017_Oct/acov_tid296916_thumb.jpg)

*Artist: Dissolving Of Prodigy & Bigotry
*Album: Lamentations Of Innocents/Step To The Grave [best of/compilation]
*Year: 2017
*Genre: Doom/Death Metal
*Country: Czech Republic (IMG:http://metalarea.org/forum/style_images/flags/Czech%20Republic.png)
*Format: mp3@CBR320kbps
*Size: 174MB

Tracklist:
Dissolving Of Prodigy:
1. Affliction 07:38
2. The Torment In Blind Eyes 08:19
3. Damocles Gladius 07:03
4. Unfanding Sorrow 07:25
5. Prayer For Love 07:14
Bigotry:
6. Pictures Of The Gloominess 07:19
7. Love History 08:00
8. Over The Grave Of My Love 07:23
9. In Memory 03:15
******************************
Total playing time: 1:03:36



Extended info
+ Scans.

In Memory Of René "Fusaty" Krystyn (4.7.1974 - 23.9.2013).


Technical info
(IMG:http://metalarea.org/images/spectrogram/2017_Oct/19a766a65dcdd8b489f7390d76529ae2.png)
Input File: 1. Affliction.mp3
Channels : 2
Sample Rate : 44100
Precision : 16-bit
Duration : 00:07:39.04 = 20243796 samples = 34428.2 CDDA sectors
File Size : 18.4M
Bit Rate : 320k
Sample Encoding: MPEG audio (layer I, II or III)
Comments :
Title=Affliction
Artist=Dissolving Of Prodigy
Album=Lamentations Of Innocents & Step To The Grave
Tracknumber=1
Year=2017
Genre=Doom/Death Metal



Register


Go to the top of the page
  Insert nick Quick quote
+Quote Post
 
Start new topic
Replies (1 - 2)
post Nov 2 2017, 07:20:47
Post #2

...
Group Icon
Group: S-moderation team
Posts: 6,308
Releases: 1276
On Forums: 7 years 4 months
Thanks: 31945 time(s)
Croatia


is this a collaboration or split or what? how can it be compilation if it's two bands? (IMG:style_emoticons/default/hmm.gif)
Go to the top of the page
  Insert nick Quick quote
+Quote Post
post Apr 15 2018, 21:36:14
Post #3

Литр
*
Group: Подсевший
Posts: 92
Releases: 0
On Forums: 9 years 2 months
Thanks: 8 time(s)
Czech Republic


Bigotry is first name of the band (1989-1993), from year 1994 as Dissolving of Prodigy (IMG:style_emoticons/default/smile3.gif)
Go to the top of the page
  Insert nick Quick quote
+Quote Post

Reply to this topicStart new topic
1 User(s) are reading this topic (1 Guests and 0 Anonymous Users)
0 Members:

 



- Lo-Fi Version Support form
Copyrights and abuse reports form
Time is now: 21st July 2018 - 01:06:25