Welcome Guest ( Log In | Register )

> И неформату есть предел.

Рэп/хип-хоп/шансон/поп удаляются. Для них есть свои порталы.

 
ОтветитьСоздать новую тему
> Peter Bjärgö - Animus Retinentia (2017), Dark Ambient, Modern Classical
post Oct 29 2017, 13:49:37
Post #1

Девять Литров
*********
Group: Металариец
Posts: 911
Releases: 357
From: north korea
On Forums: 7 years 3 months
Thanks: 7597 time(s)
Italy


(IMG:http://metalarea.org/images/audiocovers/2017_Oct/acov_tid296917_thumb.jpg)

*Artist: Peter Bjärgö
*Album: Animus Retinentia
*Year: 2017
*Genre: Dark Ambient, Modern Classical
*Country: Sweden (IMG:http://metalarea.org/forum/style_images/flags/Sweden.png)
*Format: mp3@CBR320kbps
*Size: 103MB

Tracklist:
01. You Let The Light Shine Through 04:07
02. Stillhet 01:52
03. To Replace My Sadness 03:46
04. Grains 02:22
05. Where Night Is Eternal 03:15
06. As Rain Falls 02:49
07. Memories 03:49
08. Transcend Time 05:15
09. Memories II 04:08
10. In Agony 04:07
11. Sleep Dep.Loop2 10:01
******************************
Total playing time: 45:31



Technical info
(IMG:http://metalarea.org/images/spectrogram/2017_Oct/b8c2c20709f62bee50d03ef35f1a5b43.png)
Input File: 02. Stillhet.mp3
Channels : 2
Sample Rate : 44100
Precision : 16-bit
Duration : 00:01:52.07 = 4942067 samples = 8404.88 CDDA sectors
File Size : 4.48M
Bit Rate : 320k
Sample Encoding: MPEG audio (layer I, II or III)
Comments :
Title=Stillhet
Artist=Peter Bjärgö
Album=Animus Retinentia
Tracknumber=02
Year=2017
Genre=Ambient/Dark Ambient/Modern Classical/Neo-Classical



Register


Вернуться к началу страницы
  Insert nick Quick quote
+Цитировать сообщение

ОтветитьСоздать новую тему
1 User(s) are reading this topic (1 Guests and 0 Anonymous Users)
0 Members:

 



- Lo-Fi Version Support form
Copyrights and abuse reports form
Time is now: 23rd February 2018 - 03:58:08