Welcome Guest ( Log In | Register )

> И неформату есть предел.

Рэп/хип-хоп/шансон/поп удаляются. Для них есть свои порталы.

 
Reply to this topicStart new topic
> Dungeons Of Irithyll - A Journey Through The Dark (2016), Dungeon Synth/Dark Ambient
post Oct 29 2017, 15:48:01
Post #1

Правь статус, ####!616
**************
Group: Металариец
Posts: 4,426
Releases: 3019
From: 55°35’N 38°08’E
On Forums: 10 years 5 months
Thanks: 57041 time(s)
Unknown


(IMG:http://metalarea.org/images/audiocovers/2017_Oct/acov_tid296934_thumb.jpg)

*Artist: Dungeons Of Irithyll
*Album: A Journey Through The Dark
*Year: 2016
*Genre: Dungeon Synth/Dark Ambient
*Country: Canada (IMG:http://metalarea.org/forum/style_images/flags/Canada.png)
*Format: mp3@CBR320kbps
*Size: 74MB

Tracklist:
1.Ash Seeketh Embers 03:01
2.A Restful Spire of Kindled Flame 01:39
3.Undead Abode 04:33
4.A Fateless Encounter 01:31
5.Delving Deep 03:07
6.The Boreal Valley 03:14
7.A Shivering Path Hidden Amidst Trees of White 02:08
8.The Grand Archives 06:18
9.... Still Closed... 03:02
10.An Ancient Monarch Laid To Rest 03:06
******************************
Total playing time: 31:39




Technical info
(IMG:http://metalarea.org/images/spectrogram/2017_Oct/0c07ea251df106dfc0f3f3a990475798.png)
Input File: 01 Ash Seeketh Embers.mp3
Channels : 2
Sample Rate : 44100
Precision : 16-bit
Duration : 00:03:01.07 = 7985363 samples = 13580.5 CDDA sectors
File Size : 7.35M
Bit Rate : 325k
Sample Encoding: MPEG audio (layer I, II or III)
Comments :
Title=Ash Seeketh Embers
Artist=Dungeons of Irithyll
Album=A Journey Through The Dark
Tracknumber=1
Year=2016
Genre=Ambient



Register


Go to the top of the page
  Insert nick Quick quote
+Quote Post

Reply to this topicStart new topic
1 User(s) are reading this topic (1 Guests and 0 Anonymous Users)
0 Members:

 



- Lo-Fi Version Support form
Copyrights and abuse reports form
Time is now: 14th December 2018 - 20:39:41