Welcome Guest ( Log In | Register )

> Maléfice - Rencontre Avec La Bête (2017), Epic/Atmospheric Black Metal (D7)
post Oct 29 2017, 23:07:57
Post #1

Аннигилятор пивА
Group Icon
Group: V.I.P
Posts: 52,360
Releases: 16553
From: Koenigsberg - TILZIT
On Forums: 13 years 7 months
Thanks: 363824 time(s)
Russian Federation


(IMG:https://metalarea.org/images/audiocovers/2017_Oct/acov_tid296949_thumb.jpg)

*Artist: Maléfice
*Album: Rencontre Avec La Bête
*Year: 2017
*Genre: Epic/Atmospheric Black Metal
*Country: France (IMG:https://metalarea.org/forum/style_images/flags/France.png)
*Format: mp3@CBR320kbps
*Size: 106MB

Tracklist:
01. Rencontre Avec La Bête
02. Die Welt Gehört Uns
03. Ma Petite Collection
04. Clouds Of Steel
05. La Peau De L'Auroch
06. Aux Portes D'Hades
07. Croisade Contre Le Graal
******************************
Total playing time: 45:07



Extended info



Technical info
(IMG:https://metalarea.org/images/spectrogram/2017_Oct/c5d42ed30784b02e6fb06942a02f3f48.png)
Input File: 01 - Rencontre Avec La Bête.mp3
Channels : 2
Sample Rate : 44100
Precision : 16-bit
Duration : 00:03:07.04 = 8248420 samples = 14027.9 CDDA sectors
File Size : 7.68M
Bit Rate : 329k
Sample Encoding: MPEG audio (layer I, II or III)
Comments :
Title=Rencontre Avec La BГЄte
Artist=MalГ©fice
Album=Rencontre Avec La BГЄte
Tracknumber=01/07
Year=2017
Genre=Other



Register


Go to the top of the page
  Insert nick Quick quote
+Quote Post
 
Start new topic
Replies (1 - 8)
post Oct 30 2017, 03:28:35
Post #2

Аннигилятор пивА
Group Icon
Group: V.I.P
Posts: 52,360
Releases: 16553
From: Koenigsberg - TILZIT
On Forums: 13 years 7 months
Thanks: 363824 time(s)
Russian Federation


прошлые альбомы выложены под флагом Франции, на дискогсе обозначена Германия (IMG:style_emoticons/default/hmm.gif)
по материалу: этакий саммонинг на тему деятельности немецких мистических орденов туле и анненербе

MIRROR
Register


Go to the top of the page
  Insert nick Quick quote
+Quote Post
post Oct 30 2017, 06:33:53
Post #3

Group: Дух
Posts: 1
Releases: 0
On Forums: 2 years 8 months
Thanks: 0 time(s)
Russian Federation


Отличная вещь, как и все предыдущие работы! По сабжу, хочу добавить важную информацию, на данном альбоме присутствуют, в качестве гостевых исполнителей, вокалисты культовых проектов: Der Stürmer, Nokturne, Blutkult и Holdaar!
Go to the top of the page
  Insert nick Quick quote
+Quote Post
post Oct 30 2017, 09:33:45
Post #4

 
********
Group: Металариец
Posts: 840
Releases: 87
On Forums: 11 years 9 months
Thanks: 2259 time(s)
Russian Federation


предыдущий понравился, а этот чёто как-то не. перестарались с мешаниной из звуков
Go to the top of the page
  Insert nick Quick quote
+Quote Post
post Oct 30 2017, 10:06:25
Post #5

Четыре Литра
****
Group: Металариец
Posts: 388
Releases: 8
From: UA
On Forums: 11 years 11 months
Thanks: 780 time(s)
Ukraine


ЦИТАТА(aesteticvice @ Oct 30 2017, 04:28:35) *
прошлые альбомы выложены под флагом Франции, на дискогсе обозначена Германия (IMG:style_emoticons/default/hmm.gif)

На discogs в релизах всегда указана страна лейбла (в данном случае немецкий Darker Than Black)..


Thanks:
Go to the top of the page
  Insert nick Quick quote
+Quote Post
post Oct 30 2017, 16:41:29
Post #6

holy trident
**********
Group: Металариец
Posts: 1,112
Releases: 0
On Forums: 7 years 2 weeks
Thanks: 730 time(s)
Ukraine


збс
саммонинг здорового человека


Thanks:
(1) Qliphoth,
Go to the top of the page
  Insert nick Quick quote
+Quote Post
post Nov 2 2017, 16:12:14
Post #7

for me your flesh
********
Group: Металариец
Posts: 895
Releases: 0
On Forums: 2 years 5 months
Thanks: 700 time(s)
Unknown


Предыдущий эпичней был и живей. А здесь сплошной бездушный синтетический шлак (IMG:style_emoticons/default/22.gif)
Go to the top of the page
  Insert nick Quick quote
+Quote Post
post Nov 8 2017, 11:21:32
Post #8

Четыре Литра
****
Group: Металариец
Posts: 354
Releases: 0
On Forums: 2 years 3 months
Thanks: 160 time(s)
Unknown


Хороший альбом с замечательными приглашенными музыкантами. Обилие клавиш не сколько не умиляет ценности всего материала, а напротив подчеркивает его эпичность. Прослушал уже несколько раз и пока не надоедает
Go to the top of the page
  Insert nick Quick quote
+Quote Post
post May 5 2018, 12:39:00
Post #9

Правь статус, ####!111
**************
Group: Металариец
Posts: 2,564
Releases: 12
On Forums: 12 years 5 months
Thanks: 1453 time(s)
Russian Federation


Достойная тема, даже клавиши весьма к месту, хоть с ними и перебор на мой вкус.
Go to the top of the page
  Insert nick Quick quote
+Quote Post

Reply to this topicStart new topic
1 User(s) are reading this topic (1 Guests and 0 Anonymous Users)
0 Members:

 



- Lo-Fi Version Support form
Copyrights and abuse reports form
Time is now: 26th January 2020 - 21:51:47