Welcome Guest ( Log In | Register )

> Tenebres - Pain Eternal (2017), Symphonic Black/Gothic/Doom Metal
post Oct 30 2017, 14:00:17
Post #1

Аннигилятор пивА
Group Icon
Group: V.I.P
Posts: 46,692
Releases: 14016
From: Koenigsberg - TILZIT
On Forums: 11 years 11 months
Thanks: 310831 time(s)
Russian Federation


(IMG:https://metalarea.org/images/audiocovers/2017_Oct/acov_tid296967_thumb.jpg)

*Artist: Tenebres
*Album: Pain Eternal
*Year: 2017
*Genre: Symphonic Black/Gothic/Doom Metal
*Country: Romania (IMG:https://metalarea.org/forum/style_images/flags/Romania.png)
*Format: mp3@CBR320kbps
*Size: 124MB

Tracklist:
01. Intro & Anger Divine
02. Cry in Serenity
03. Reign in Grief
04. Pain Eternal
05. Redemption
06. Twilight of Fate
07. The Gift of Passion and Agony
08. Where Life and Death Entwine
09. Into the End - Soulless Existence (Outro)
******************************
Total playing time: 54:32



Extended info
Black/Gothic Metal with Symphonic & Doom Metal influences

Demetrius Daine - Lead Vocals
Dorian - Guitar & Backing Vocals
Theo - Bass & Backing Vocals
Rudolf - Drums & Percussion
Daiana - Cello
Emanuel Filip - Keyboards



Technical info
(IMG:https://metalarea.org/images/spectrogram/2017_Oct/dbdb34b00d191ef567c3c7bf78048878.png)
Input File: 03 - Reign in Grief.mp3
Channels : 2
Sample Rate : 44100
Precision : 16-bit
Duration : 00:06:10.30 = 16330098 samples = 27772.3 CDDA sectors
File Size : 14.8M
Bit Rate : 320k
Sample Encoding: MPEG audio (layer I, II or III)
Comments :
Title=Reign in Grief
Artist=Tenebres
Album=Pain Eternal
Tracknumber=3
Year=2017
Genre=Black Metal



Register


Вернуться к началу страницы
  Insert nick Quick quote
+Цитировать сообщение
 
Создать новую тему
Replies (1 - 2)
post Dec 17 2017, 14:58:46
Post #2

Аннигилятор пивА
Group Icon
Group: V.I.P
Posts: 46,692
Releases: 14016
From: Koenigsberg - TILZIT
On Forums: 11 years 11 months
Thanks: 310831 time(s)
Russian Federation


MIRROR
Register


Вернуться к началу страницы
  Insert nick Quick quote
+Цитировать сообщение
post Jan 13 2018, 15:52:54
Post #3

Маньяк
**********
Group: Металариец
Posts: 1,396
Releases: 0
From: MoscoW
On Forums: 11 years 5 months
Thanks: 993 time(s)
Russian Federation


Обалденный музон, спасибо!!
Вернуться к началу страницы
  Insert nick Quick quote
+Цитировать сообщение

ОтветитьСоздать новую тему
2 User(s) are reading this topic (2 Guests and 0 Anonymous Users)
0 Members:

 



- Lo-Fi Version Support form
Copyrights and abuse reports form
Time is now: 20th May 2018 - 14:57:27