Welcome Guest ( Log In | Register )

> И неформату есть предел.

Рэп/хип-хоп/шансон/поп удаляются. Для них есть свои порталы.

 
ОтветитьСоздать новую тему
> Mars Red Sky - Myramyd [ep] (2017), Psychedelic/Stoner Rock (D6)
post Oct 30 2017, 23:06:46
Post #1

Let's Go Rangers!
***********
Group: Металариец
Posts: 1,515
Releases: 21
From: Киев
On Forums: 11 years 4 days
Thanks: 2107 time(s)
Ukraine


(IMG:https://metalarea.org/images/audiocovers/2017_Oct/acov_tid296994_thumb.jpg)

*Artist: Mars Red Sky
*Album: Myramyd [ep]
*Year: 2017
*Genre: Psychedelic/Stoner Rock
*Country: France (IMG:https://metalarea.org/forum/style_images/flags/France.png)
*Format: mp3@CBR320kbps
*Size: 38MB

Tracklist:
1. Myramyd
******************************
Total playing time: 17:03

Technical info
(IMG:https://metalarea.org/images/spectrogram/2017_Oct/a486d774c4b10f40ca629cbc5ff0372e.png)
Input File: 01 - Myramyd.mp3
Channels : 2
Sample Rate : 44100
Precision : 16-bit
Duration : 00:17:03.34 = 45129206 samples = 76750.4 CDDA sectors
File Size : 40.9M
Bit Rate : 320k
Sample Encoding: MPEG audio (layer I, II or III)
Comments :
Title=Myramyd
Artist=Mars Red Sky
Album=Myramyd (EP)
Tracknumber=01
Year=2017
Genre=Psychedelic/Stoner Rock



Register


Вернуться к началу страницы
  Insert nick Quick quote
+Цитировать сообщение

ОтветитьСоздать новую тему
1 User(s) are reading this topic (1 Guests and 0 Anonymous Users)
0 Members:

 



- Lo-Fi Version Support form
Copyrights and abuse reports form
Time is now: 23rd February 2018 - 03:55:40