Welcome Guest ( Log In | Register )

> Scour - Red [ep] (2017), Black Metal
post Nov 2 2017, 11:32:25
Post #1

Аннигилятор пивА
Group Icon
Group: V.I.P
Posts: 52,360
Releases: 16550
From: Koenigsberg - TILZIT
On Forums: 14 years 7 months
Thanks: 366912 time(s)
Russian Federation


(IMG:https://metalarea.org/images/audiocovers/2017_Nov/acov_tid297103_thumb.jpg)

*Artist: Scour
*Album: Red [ep]
*Year: 2017
*Genre: Black Metal
*Country: United States (IMG:https://metalarea.org/forum/style_images/flags/United%20States.png)
*Format: mp3@CBR320kbps
*Size: 36MB

Tracklist:
01. Red
02. Piles
03. Bleak
04. Barricade
05. Sentenced
06. Shank
******************************
Total playing time: 15:38



Extended info
Phillip H. Anselmo (PANTERA, DOWN, SUPERJOINT) - Vocals
Derek Engemann (CATTLE DECAPITATION) - Guitar
Chase Fraser (ANIMOSITY) - Guitar
John Jarvis (PIG DESTROYER) - Bass
Adam Jarvis (MISERY INDEX, PIG DESTROYER) - Drums


Technical info
(IMG:https://metalarea.org/images/spectrogram/2017_Nov/5f72c250eec6921da7e909ecb779169a.png)
Input File: 2. Piles.mp3
Channels : 2
Sample Rate : 44100
Precision : 16-bit
Duration : 00:02:23.02 = 6306962 samples = 10726.1 CDDA sectors
File Size : 5.80M
Bit Rate : 324k
Sample Encoding: MPEG audio (layer I, II or III)
Comments :
Title=Piles
Artist=Scour
Album=Red
Tracknumber=2/6
Year=2017



Register


Go to the top of the page
  Insert nick Quick quote
+Quote Post
 
Start new topic
Replies (1 - 9)
post Nov 2 2017, 13:45:22
Post #2

Аннигилятор пивА
Group Icon
Group: V.I.P
Posts: 52,360
Releases: 16550
From: Koenigsberg - TILZIT
On Forums: 14 years 7 months
Thanks: 366912 time(s)
Russian Federation


MIRROR
Register


Go to the top of the page
  Insert nick Quick quote
+Quote Post
post Nov 3 2017, 17:44:05
Post #3

Правь статус, ####!111
**************
Group: Металариец
Posts: 3,419
Releases: 11
From: Dnipro
On Forums: 12 years 6 months
Thanks: 1276 time(s)
Ukraine


Ух и колбасят черти, угар!!! (IMG:style_emoticons/default/20.gif)
Phillip H. Anselmo (PANTERA, DOWN, SUPERJOINT) - Vocals
Derek Engemann (CATTLE DECAPITATION) - Guitar
Chase Fraser (ANIMOSITY) - Guitar
John Jarvis (PIG DESTROYER) - Bass
Adam Jarvis (MISERY INDEX, PIG DESTROYER) - Drums
Go to the top of the page
  Insert nick Quick quote
+Quote Post
post Nov 7 2017, 19:57:16
Post #4

Аннигилятор пивА
Group Icon
Group: V.I.P
Posts: 52,360
Releases: 16550
From: Koenigsberg - TILZIT
On Forums: 14 years 7 months
Thanks: 366912 time(s)
Russian Federation


опять Ансельмо расщедрился только на миник и это-то при таком убойном материале, времени не хватает? или это детище парней из пиг дестроер и А тут типа друг-вокалист, есть кака инфа?
Go to the top of the page
  Insert nick Quick quote
+Quote Post
post Jan 27 2018, 08:59:20
Post #5

Самый Тихий Час
**************
Group: Металариец
Posts: 6,287
Releases: 6
On Forums: 11 years 2 months
Thanks: 2928 time(s)
Unknown


Да ничего особенного этот старбэнд не сделал. Всё хорошее отсюда уже есть в Aosoth.
Go to the top of the page
  Insert nick Quick quote
+Quote Post
post Aug 29 2018, 15:59:33
Post #6

Black is beautiful
***********
Group: Металариец
Posts: 1,831
Releases: 4
On Forums: 8 years 10 months
Thanks: 369 time(s)
Unknown


Very good Black Metal! A black pearl. (IMG:style_emoticons/default/true_black.gif) (IMG:style_emoticons/default/true_black.gif)


Thanks:
Go to the top of the page
  Insert nick Quick quote
+Quote Post
Anger
post Aug 29 2018, 18:15:40
Post #7

Guests team






боже, куда Фила занесло! это писдееееееееееееееееец

лучше б ты южные и блюзовые темы делал, блеать (IMG:style_emoticons/default/normal_Homerdisgust3.png)
Go to the top of the page
  Insert nick Quick quote
+Quote Post
post Dec 2 2020, 14:40:48
Post #8

Добрейшей души Мегаманьяк
***********
Group: Металариец
Posts: 1,796
Releases: 0
From: Bashkortostan, Өфө
On Forums: 12 years 11 months
Thanks: 864 time(s)
Russian Federation


Буду люто благодарен за обновление ссылок
Go to the top of the page
  Insert nick Quick quote
+Quote Post
post Dec 3 2020, 08:01:47
Post #9

Group Icon
Group: S-moderation team
Posts: 18,741
Releases: 1441
From: Zagreb
On Forums: 9 years 10 months
Thanks: 86305 time(s)
Croatia


Register


Go to the top of the page
  Insert nick Quick quote
+Quote Post
post Jan 13 2021, 20:43:16
Post #10

Ретроград
**************
Group: Металариец
Posts: 5,162
Releases: 197
On Forums: 13 years 6 months
Thanks: 8129 time(s)
Vatican City


ЦИТАТА(Anger @ Aug 29 2018, 20:15:40) *
боже, куда Фила занесло! это писдееееееееееееееееец

Ансельмо рубил дэт, когда ты еще ссался в портки
Go to the top of the page
  Insert nick Quick quote
+Quote Post

Reply to this topicStart new topic
1 User(s) are reading this topic (1 Guests and 0 Anonymous Users)
0 Members:

 



- Lo-Fi Version Support form
Copyrights and abuse reports form
Time is now: 16th January 2021 - 03:17:38