Welcome Guest ( Log In | Register )

> И неформату есть предел.

Рэп/хип-хоп/шансон/поп удаляются. Для них есть свои порталы.

 
Reply to this topicStart new topic
> OAKE - Sentiment Of Callousness [ep] (2017), Dark Ambient/Industrial/Experimental
post Nov 2 2017, 23:01:42
Post #1

ashes of yesterdays
**********
Group: Металариец
Posts: 1,056
Releases: 8
On Forums: 11 years 2 months
Thanks: 2653 time(s)
Unknown


(IMG:http://metalarea.org/images/audiocovers/2017_Nov/acov_tid297150_thumb.jpg)

*Artist: OAKE
*Album: Sentiment Of Callousness [ep]
*Year: 2017
*Genre: Dark Ambient/Industrial/Experimental
*Country: Germany (IMG:http://metalarea.org/forum/style_images/flags/Germany.png)
*Format: mp3@CBR320kbps
*Size: 55MB

Tracklist:
01. Alog 6:43
02. Apath 5:02
03. Abul 6:06
04. Anhedon 8:18
******************************
Total playing time: 26:09



Extended info

Anhedon (IMG:style_emoticons/default/banana.gif) (IMG:style_emoticons/default/headcrab.png)

"Sentiment of Callousness was written over a one-and-a-half year period of total collapse, characterized by disconnection between the world within and the perception of the world outside.

Each of the tracks embodies feelings experienced during this time - from dark to bright, sluggish to energetic, alive to dead, real to unreal, and the self to the other."


Technical info
(IMG:http://metalarea.org/images/spectrogram/2017_Nov/3bfb34655959c9e7c5b84447971e0cd2.png)
Input File: 01 Alog.mp3
Channels : 2
Sample Rate : 44100
Precision : 16-bit
Duration : 00:06:42.18 = 17736138 samples = 30163.5 CDDA sectors
File Size : 16.2M
Bit Rate : 321k
Sample Encoding: MPEG audio (layer I, II or III)
Comments :
Title=Alog
Artist=OAKE
Album=Sentiment Of Callousness EP
Tracknumber=01
Year=2017
Genre=electronic



Register


Go to the top of the page
  Insert nick Quick quote
+Quote Post

Reply to this topicStart new topic
1 User(s) are reading this topic (1 Guests and 0 Anonymous Users)
0 Members:

 



- Lo-Fi Version Support form
Copyrights and abuse reports form
Time is now: 19th September 2018 - 14:05:05