Welcome Guest ( Log In | Register )

> И неформату есть предел.

Рэп/хип-хоп/шансон/поп удаляются. Для них есть свои порталы.

ОтветитьСоздать новую тему
> OAKE - Sentiment Of Callousness [ep] (2017), Dark Ambient/Industrial/Experimental
post Nov 2 2017, 23:01:42
Post #1

ashes of yesterdays
Group: Металариец
Posts: 1,054
Releases: 8
On Forums: 10 years 9 months
Thanks: 2626 time(s)


*Artist: OAKE
*Album: Sentiment Of Callousness [ep]
*Year: 2017
*Genre: Dark Ambient/Industrial/Experimental
*Country: Germany (IMG:http://metalarea.org/forum/style_images/flags/Germany.png)
*Format: mp3@CBR320kbps
*Size: 55MB

01. Alog 6:43
02. Apath 5:02
03. Abul 6:06
04. Anhedon 8:18
Total playing time: 26:09

Extended info

Anhedon (IMG:style_emoticons/default/banana.gif) (IMG:style_emoticons/default/headcrab.png)

"Sentiment of Callousness was written over a one-and-a-half year period of total collapse, characterized by disconnection between the world within and the perception of the world outside.

Each of the tracks embodies feelings experienced during this time - from dark to bright, sluggish to energetic, alive to dead, real to unreal, and the self to the other."

Technical info
Input File: 01 Alog.mp3
Channels : 2
Sample Rate : 44100
Precision : 16-bit
Duration : 00:06:42.18 = 17736138 samples = 30163.5 CDDA sectors
File Size : 16.2M
Bit Rate : 321k
Sample Encoding: MPEG audio (layer I, II or III)
Comments :
Album=Sentiment Of Callousness EP


Вернуться к началу страницы
  Insert nick Quick quote
+Цитировать сообщение

ОтветитьСоздать новую тему
2 User(s) are reading this topic (2 Guests and 0 Anonymous Users)
0 Members:


- Lo-Fi Version Support form
Copyrights and abuse reports form
Time is now: 21st March 2018 - 17:53:59