Welcome Guest ( Log In | Register )

> И неформату есть предел.

Рэп/хип-хоп/шансон/поп удаляются. Для них есть свои порталы.

 
Reply to this topicStart new topic
> Moratory - Конфронтация (2017), Crossover/Metalpunk/D-beat
post Nov 3 2017, 02:48:39
Post #1

Правь статус, ####!111
**************
Group: Металариец
Posts: 3,497
Releases: 1811
From: Земля
On Forums: 4 years 3 months
Thanks: 9752 time(s)
Russian Federation


(IMG:https://metalarea.org/images/audiocovers/2017_Nov/acov_tid297152_thumb.jpg)

*Artist: Moratory
*Album: Конфронтация
*Year: 2017
*Genre: Crossover/Metalpunk/D-beat
*Country: Russian Federation (IMG:https://metalarea.org/forum/style_images/flags/Russian%20Federation.png)
*Format: mp3@CBR320kbps
*Size: 143MB

Tracklist:
1. Headhunter 03:43
2. Страдаем Мы/We Suffer 02:36
3. Хватит!/Enough! 01:44
4. Родина Ждет/The Homeland Awaits 01:45
5. Дети Войны/Children of War (feat. Alex Distress) 03:04
6. Свободу Политзаключенным/Free the Political Prisoners 03:15
7. Спасибо Вам/Thank You All 02:18
8. Welcome to Hell 02:19
9. Конфронтация/Confrontation 03:04
10. Поколение Рабов/Generation of the Slaves 02:11
11. Год за Годом/Year after Year (Bonus Track) 02:00
******************************
Total playing time: 27:59


vk.com

Technical info
(IMG:https://metalarea.org/images/spectrogram/2017_Nov/55e8bb3af97572525f8b3a07ff4bd09f.png)
Input File: 01_Headhunter.mp3
Channels : 2
Sample Rate : 44100
Precision : 16-bit
Duration : 00:03:43.56 = 9858776 samples = 16766.6 CDDA sectors
File Size : 15.9M
Bit Rate : 569k
Sample Encoding: MPEG audio (layer I, II or III)
Comments :
Title=Headhunter
Artist=Moratory
Album=Конфронтация
Tracknumber=01/11
Year=2017
Genre=Metal/Punk
Discnumber=1/1



Register


Thanks:
Go to the top of the page
  Insert nick Quick quote
+Quote Post

Reply to this topicStart new topic
1 User(s) are reading this topic (1 Guests and 0 Anonymous Users)
0 Members:

 



- Lo-Fi Version Support form
Copyrights and abuse reports form
Time is now: 20th June 2018 - 20:05:00