Welcome Guest ( Log In | Register )

> И неформату есть предел.

Рэп/хип-хоп/шансон/поп удаляются. Для них есть свои порталы.

> Echoes - Cornerstone (2017), Post-Metal/Post-Rock (D7)
post Nov 3 2017, 08:49:49
Post #1

Аннигилятор пивА
Group Icon
Group: V.I.P
Posts: 48,777
Releases: 14911
From: Koenigsberg - TILZIT
On Forums: 12 years 3 months
Thanks: 326826 time(s)
Russian Federation


(IMG:http://metalarea.org/images/audiocovers/2017_Nov/acov_tid297162_thumb.jpg)

*Artist: Echoes
*Album: Cornerstone
*Year: 2017
*Genre: Post-Metal/Post-Rock
*Country: United Kingdom (IMG:http://metalarea.org/forum/style_images/flags/United%20Kingdom.png)
*Format: mp3@CBR320kbps
*Size: 114MB

Tracklist:
01. The House That Built Me
02. Tiger Teeth
03. Nature
04. Everything Still
05. Love, Let Go
06. Bridges Built
07. Embers
08. I Thought I Could
09. Midnight
10. So I Followed My Feet
******************************
Total playing time: 47:06



Extended info


Technical info
(IMG:http://metalarea.org/images/spectrogram/2017_Nov/96349255a7d5d8da5f699a7e70c55ccb.png)
Input File: 03. Nature.mp3
Channels : 2
Sample Rate : 44100
Precision : 16-bit
Duration : 00:05:09.43 = 13645687 samples = 23207 CDDA sectors
File Size : 12.4M
Bit Rate : 320k
Sample Encoding: MPEG audio (layer I, II or III)
Comments :
Title=Nature
Artist=Echoes
Album=Cornerstone
Tracknumber=3
Year=2017
Genre=Post-Metal/Post Hardcore



Register


Go to the top of the page
  Insert nick Quick quote
+Quote Post
 
Start new topic
Replies (1 - 4)
post Nov 9 2017, 05:48:33
Post #2

MélöManiäc
*****
Group: Металариец
Posts: 447
Releases: 36
From: КубанЬ
On Forums: 9 years 8 months
Thanks: 788 time(s)
Russian Federation


Атмосферная музычка.



Thanks:
(1) stone88,
Go to the top of the page
  Insert nick Quick quote
+Quote Post
post Nov 9 2017, 06:24:23
Post #3

стазис эпидерсис
***********
Group: Металариец
Posts: 1,948
Releases: 0
On Forums: 2 years 7 months
Thanks: 1204 time(s)
Unknown


Альтернатива какая то.
Go to the top of the page
  Insert nick Quick quote
+Quote Post
post Nov 9 2017, 09:21:04
Post #4

Семь Литров
*******
Group: Металариец
Posts: 795
Releases: 0
From: Харьков
On Forums: 10 years 6 months
Thanks: 580 time(s)
Ukraine


Хорошая эмбиент-музыка. Под утро самое то.
Go to the top of the page
  Insert nick Quick quote
+Quote Post
post Nov 9 2017, 13:04:41
Post #5

Девять Литров
*********
Group: Металариец
Posts: 993
Releases: 0
On Forums: 9 years 6 months
Thanks: 349 time(s)
Antarctica


По музыке вроде ничего, но вокалиста убил бы. Не могу это слушать.
Go to the top of the page
  Insert nick Quick quote
+Quote Post

Reply to this topicStart new topic
1 User(s) are reading this topic (1 Guests and 0 Anonymous Users)
0 Members:

 



- Lo-Fi Version Support form
Copyrights and abuse reports form
Time is now: 19th September 2018 - 10:54:40