Welcome Guest ( Log In | Register )

> И неформату есть предел.

Рэп/хип-хоп/шансон/поп удаляются. Для них есть свои порталы.

> Echoes - Cornerstone (2017), Post-Metal/Post-Rock (D7)
post Nov 3 2017, 08:49:49
Post #1

Аннигилятор пивА
Group Icon
Group: V.I.P
Posts: 45,770
Releases: 13663
From: Koenigsberg - TILZIT
On Forums: 11 years 8 months
Thanks: 302400 time(s)
Russian Federation


(IMG:http://metalarea.org/images/audiocovers/2017_Nov/acov_tid297162_thumb.jpg)

*Artist: Echoes
*Album: Cornerstone
*Year: 2017
*Genre: Post-Metal/Post-Rock
*Country: United Kingdom (IMG:http://metalarea.org/forum/style_images/flags/United%20Kingdom.png)
*Format: mp3@CBR320kbps
*Size: 114MB

Tracklist:
01. The House That Built Me
02. Tiger Teeth
03. Nature
04. Everything Still
05. Love, Let Go
06. Bridges Built
07. Embers
08. I Thought I Could
09. Midnight
10. So I Followed My Feet
******************************
Total playing time: 47:06



Extended info


Technical info
(IMG:http://metalarea.org/images/spectrogram/2017_Nov/96349255a7d5d8da5f699a7e70c55ccb.png)
Input File: 03. Nature.mp3
Channels : 2
Sample Rate : 44100
Precision : 16-bit
Duration : 00:05:09.43 = 13645687 samples = 23207 CDDA sectors
File Size : 12.4M
Bit Rate : 320k
Sample Encoding: MPEG audio (layer I, II or III)
Comments :
Title=Nature
Artist=Echoes
Album=Cornerstone
Tracknumber=3
Year=2017
Genre=Post-Metal/Post Hardcore



Register


Вернуться к началу страницы
  Insert nick Quick quote
+Цитировать сообщение
 
Создать новую тему
Replies (1 - 4)
post Nov 9 2017, 05:48:33
Post #2

MélöManiäc
*****
Group: Металариец
Posts: 421
Releases: 35
From: КубанЬ
On Forums: 9 years 1 month
Thanks: 750 time(s)
Russian Federation


Атмосферная музычка.



Thanks:
(1) stone88,
Вернуться к началу страницы
  Insert nick Quick quote
+Цитировать сообщение
post Nov 9 2017, 06:24:23
Post #3

стазис эпидерсис
***********
Group: Металариец
Posts: 1,590
Releases: 0
On Forums: 2 years 3 weeks
Thanks: 962 time(s)
Unknown


Альтернатива какая то.
Вернуться к началу страницы
  Insert nick Quick quote
+Цитировать сообщение
post Nov 9 2017, 09:21:04
Post #4

Семь Литров
*******
Group: Металариец
Posts: 732
Releases: 0
From: Харьков
On Forums: 9 years 11 months
Thanks: 527 time(s)
Ukraine


Хорошая эмбиент-музыка. Под утро самое то.
Вернуться к началу страницы
  Insert nick Quick quote
+Цитировать сообщение
post Nov 9 2017, 13:04:41
Post #5
BAN
RO till
Feb 24 2018, 11:16:59



По музыке вроде ничего, но вокалиста убил бы. Не могу это слушать.
Вернуться к началу страницы
  Insert nick Quick quote
+Цитировать сообщение

ОтветитьСоздать новую тему
1 User(s) are reading this topic (1 Guests and 0 Anonymous Users)
0 Members:

 



- Lo-Fi Version Support form
Copyrights and abuse reports form
Time is now: 23rd February 2018 - 03:54:19