Welcome Guest ( Log In | Register )

> И неформату есть предел.

Рэп/хип-хоп/шансон/поп удаляются. Для них есть свои порталы.

> Nebulae Come Sweet & Difleger - Nebulae Come Sweet/Difleger [split] (2013), Post Metal | Drone/Experimental/Post-rock
post Nov 7 2017, 13:02:21
Post #1

Герберт Уэст
**************
Group: Металариец
Posts: 2,078
Releases: 60
From: ранее: Кто здесь? нынче:Где-то на краю мира...
On Forums: 9 years 6 months
Thanks: 4240 time(s)
Unknown


(IMG:http://metalarea.org/images/audiocovers/2017_Nov/acov_tid297396_thumb.jpg)

*Artist: Nebulae Come Sweet & Difleger
*Album: Nebulae Come Sweet/Difleger [split]
*Year: 2013
*Genre: Post Metal | Drone/Experimental/Post-rock
*Country: Belarus (IMG:http://metalarea.org/forum/style_images/flags/Belarus.png) | Belarus (IMG:http://metalarea.org/forum/style_images/flags/Belarus.png)
*Format: mp3@CBR320kbps
*Size: 103MB

Tracklist:
1. Nebulae Come Sweet - Golden Feathers and Marble Bones 09:54
2. Nebulae Come Sweet - Ophelia 07:31
3. Difleger - The Rise 04:04
4. Difleger - The Morningtide 04:10
5. Difleger - The Symbol 05:23
6. Nebulae Come Sweet - Homewrecker (Converge cover) 03:30
******************************
Total playing time: 34:32



Extended info
Miscellaneous staff
Anton Yeroma All instruments, Vocals, Lyrics, Recording, Mixing, Producer
Igor Kovalev Lyrics, Layout, Design, Producer
Polina Kayalovich Photography
Pavel Sinilo Mixing, Mastering
Arseny Nikonov Co-producer


Technical info
(IMG:http://metalarea.org/images/spectrogram/2017_Nov/3a2d930ad917b155bede3b013f34b841.png)
Input File: 01. Golden Feathers And Marble Bones.mp3
Channels : 2
Sample Rate : 44100
Precision : 16-bit
Duration : 00:09:54.02 = 26196414 samples = 44551.7 CDDA sectors
File Size : 27.4M
Bit Rate : 369k
Sample Encoding: MPEG audio (layer I, II or III)
Comments :
Title=Golden Feathers And Marble Bones
Artist=Nebulae Come Sweet
Album=Nebulae Come Sweet & Difleger Split
Tracknumber=1
Year=2013
Genre=Post-Metal



Register


Go to the top of the page
  Insert nick Quick quote
+Quote Post
 
Start new topic
Replies (1 - 5)
post Nov 7 2017, 15:48:48
Post #2

Герберт Уэст
**************
Group: Металариец
Posts: 2,078
Releases: 60
From: ранее: Кто здесь? нынче:Где-то на краю мира...
On Forums: 9 years 6 months
Thanks: 4240 time(s)
Unknown


Мда - поц-митол нынче уже неформат.))) Буду знать.))) (IMG:style_emoticons/default/1488.gif)
Go to the top of the page
  Insert nick Quick quote
+Quote Post
post Nov 7 2017, 15:50:22
Post #3

За Русь в метро взорвусь
**************
Group: Металариец
Posts: 2,332
Releases: 2
From: Yaroslavl
On Forums: 2 years 3 months
Thanks: 1345 time(s)
Northern Mariana Islands


QUOTE(paganheart @ Nov 7 2017, 19:48:48) *
Мда - поц-митол нынче уже неформат.))) Буду знать.))) (IMG:style_emoticons/default/1488.gif)

Так если в музыке не шарят, о чем говорить?
Человек, занимающийся определением хотя бы нужного формата, должен как минимум понимать в музыке, как она делается и из чего состоит(IMG:style_emoticons/default/smile1.gif)
(IMG:style_emoticons/default/bye.gif)
Go to the top of the page
  Insert nick Quick quote
+Quote Post
post Nov 7 2017, 15:55:11
Post #4

Кожаный ублюдок
**************
Group: Металариец
Posts: 2,982
Releases: 6
From: Алчевск (early) Некросибирск (now)
On Forums: 9 years 7 months
Thanks: 1737 time(s)
Russian Federation


Ну вроде как вторая команда ж не пост-метал, так что технически все верно, хоть и частично (IMG:style_emoticons/default/bye.gif)
Go to the top of the page
  Insert nick Quick quote
+Quote Post
post Nov 7 2017, 16:22:54
Post #5

Герберт Уэст
**************
Group: Металариец
Posts: 2,078
Releases: 60
From: ранее: Кто здесь? нынче:Где-то на краю мира...
On Forums: 9 years 6 months
Thanks: 4240 time(s)
Unknown


ЦИТАТА(SatanicPanzer @ Nov 7 2017, 17:55:11) *
Ну вроде как вторая команда ж не пост-метал, так что технически все верно, хоть и частично (IMG:style_emoticons/default/bye.gif)

То есть релизы всегда идут в ущерб формату? Интересный подход. Первая группа - формат, без всяких оговорок, кстати. Вот у тех же Люстре половину тем в эмбиенте на альбомах, тогда по логике - их тоже в неформат нужно. (IMG:style_emoticons/default/bye.gif)
Go to the top of the page
  Insert nick Quick quote
+Quote Post
post Nov 7 2017, 23:45:48
Post #6

Dark Ambient Shoujo
**********
Group: Металариец
Posts: 1,050
Releases: 1
On Forums: 9 years 11 months
Thanks: 526 time(s)
Russian Federation


Судя по БК, форматного тут чуть более чем ничего. А вот Люстру в неформат - эт я за!
Go to the top of the page
  Insert nick Quick quote
+Quote Post

Reply to this topicStart new topic
1 User(s) are reading this topic (1 Guests and 0 Anonymous Users)
0 Members:

 



- Lo-Fi Version Support form
Copyrights and abuse reports form
Time is now: 14th December 2018 - 19:56:12