Welcome Guest ( Log In | Register )

> И неформату есть предел.

Рэп/хип-хоп/шансон/поп удаляются. Для них есть свои порталы.

 
Reply to this topicStart new topic
> Various Artists - Sonic Seducer: Cold Hands Seduction 192 [best of/compilation] (2017), Various Gothic
post Nov 9 2017, 12:52:17
Post #1

Мегаманьяк
***********
Group: Металариец
Posts: 1,675
Releases: 463
On Forums: 10 years 4 months
Thanks: 6363 time(s)
Ireland


(IMG:https://metalarea.org/images/audiocovers/2017_Nov/acov_tid297487_thumb.jpg)

*Artist: Various Artists
*Album: Sonic Seducer: Cold Hands Seduction 192 [best of/compilation]
*Year: 2017
*Genre: Various Gothic
*Country: Many (IMG:https://metalarea.org/forum/style_images/flags/Many.png)
*Format: mp3@CBR320kbps
*Size: 147MB

Tracklist:
01. Cradle Of Filth - Achingly Beautiful
02. The Fright - Oblivion
03. Near Earth Orbit - Lucifer Rising
04. Randolph's Grin - Inorganic (Erdling Reinterpretation)
05. Emily Haines & The Soft Skeletons - Fatal Gift
06. Geneviéve Pasquier - I Wanna (Short Version)
07. La Scaltra - Cantate
08. Velvet Kills - Fill Me Out
09. Your Life On Hold - Exorcism
10. Voodoma - Ghostlight
11. Container 47 - Sinfo
12. Elm - Wapenrustning (Remixed By Mildreda)
13. Implant - The Phone Call
14. Avarice In Audio - Lie To Me (Flammpunkt Remix)
******************************
Total playing time: 1:05:45

Technical info
(IMG:https://metalarea.org/images/spectrogram/2017_Nov/f4895b172c20f947dbecb7c11a8d14cc.png)
Input File: 01. Cradle Of Filth - Achingly Beautiful.mp3
Channels : 2
Sample Rate : 44100
Precision : 16-bit
Duration : 00:07:04.48 = 18719568 samples = 31836 CDDA sectors
File Size : 17.1M
Bit Rate : 322k
Sample Encoding: MPEG audio (layer I, II or III)
Comments :
Title=Achingly Beautiful
Artist=Cradle of Filth
Album=Cold Hands Seduction Vol. 192
Tracknumber=01
Year=2017
Genre=Gothic Rock/Gothic Metal/Industrial Metal



Register


Thanks:
Go to the top of the page
  Insert nick Quick quote
+Quote Post

Reply to this topicStart new topic
1 User(s) are reading this topic (1 Guests and 0 Anonymous Users)
0 Members:

 



- Lo-Fi Version Support form
Copyrights and abuse reports form
Time is now: 19th September 2018 - 12:40:12